<?xml version="1.0" standalone="no"?>
<!DOCTYPE svg PUBLIC "-//W3C//DTD SVG 1.1//EN" "http://www.w3.org/Graphics/SVG/1.1/DTD/svg11.dtd" >
<!--
2017-12-20: Created with FontForge (http://fontforge.org)
-->
<svg xmlns="http://www.w3.org/2000/svg" xmlns:xlink="http://www.w3.org/1999/xlink" version="1.1">
<metadata>
Created by FontForge 20160405 at Wed Dec 20 09:52:46 2017
 By Apache
Copyright (c) 2017, Apache
</metadata>
<defs>
<font id="Flaticon" horiz-adv-x="512" >
  <font-face 
    font-family="Flaticon"
    font-weight="400"
    font-stretch="normal"
    units-per-em="512"
    panose-1="2 0 5 3 0 0 0 0 0 0"
    ascent="448"
    descent="-64"
    bbox="-0.00171878 -64.0029 512.002 448.001"
    underline-thickness="25.6"
    underline-position="-51.2"
    unicode-range="U+0020-F2C1"
  />
    <missing-glyph />
    <glyph glyph-name="space" unicode=" " horiz-adv-x="200" 
 />
    <glyph glyph-name="uniF10A" unicode="&#xf10a;" 
d="M151.319 76.2412c2.98926 -0.0419922 5.84863 -1.2334 7.98438 -3.32715c4.58984 -4.50098 4.66211 -11.8691 0.162109 -16.459l-69.832 -69.832c-0.388672 -0.455078 -0.814453 -0.878906 -1.26953 -1.26953c-4.88184 -4.18164 -12.2295 -3.6123 -16.4102 1.26953
c-4.18164 4.88184 -3.6123 12.2295 1.26953 16.4102l69.832 69.832c2.19629 2.17969 5.16992 3.39355 8.26367 3.37598zM279.345 87.8799c-0.0126953 -3.11035 -1.27051 -6.08594 -3.49219 -8.26367l-49.9297 -49.9297h41.7832
c3.03027 -0.0117188 5.93555 -1.20508 8.09863 -3.32617c4.58984 -4.49902 4.66406 -11.8691 0.164062 -16.459l-69.832 -69.832c-0.388672 -0.455078 -0.813477 -0.878906 -1.26855 -1.26855c-4.88184 -4.18164 -12.2295 -3.61328 -16.4102 1.26855
c-4.18262 4.88281 -3.61328 12.2295 1.26855 16.4111l49.9307 49.9297h-41.7842c-3.12695 -0.0185547 -6.12988 1.22168 -8.33105 3.44238c-4.52637 4.56445 -4.49609 11.9326 0.0673828 16.459l69.832 69.832c2.20312 2.2207 5.20508 3.46094 8.33203 3.44336
c6.42773 -0.0380859 11.6084 -5.2793 11.5713 -11.707zM442.286 329.267c40.8828 -10.6855 69.4443 -47.5615 69.5664 -89.8193c0.146484 -51.4219 -41.4209 -93.2275 -92.8428 -93.374h-325.883c-43.0127 0.0703125 -80.3799 29.5947 -90.3965 71.4238
c-11.9766 50.0088 18.8545 100.258 68.8643 112.234c6.06543 39.1025 28.4365 73.7979 61.5498 95.4619c64.5469 42.2295 151.107 24.1367 193.337 -40.4111c12.709 11.1152 29.0146 17.25 45.8984 17.2676c38.5674 0.0410156 69.8652 -31.1904 69.9062 -69.7578v-3.02539z
M419.009 169.351c33.4053 -0.994141 62.833 21.8203 70.1953 54.4209c8.49512 37.6191 -15.1152 75.0029 -52.7363 83.4971c-10.5498 2.71875 -17.8027 12.3896 -17.458 23.2783v1.74512c-0.0390625 11.1992 -4.11426 22.0107 -11.4785 30.4492
c-16.9053 19.373 -46.3154 21.3721 -65.6875 4.4668c-4.2793 -3.54883 -9.68848 -5.44727 -15.2471 -5.35449h-3.25781c-10.9072 5.04004 -20.4766 12.5762 -27.9326 21.998c-21.6475 33.2861 -46.4385 41.5498 -85.8936 41.5498
c-57.5381 -0.115234 -106.358 -42.2559 -114.874 -99.1621c-1.41309 -9.41602 -8.4209 -17.0225 -17.6904 -19.2031c-31.1807 -7.58301 -53.1807 -35.4404 -53.3291 -67.5293c-0.179688 -38.5674 30.9395 -69.9775 69.5068 -70.1562h325.883zM395.73 76.2412
c2.99121 -0.0419922 5.85059 -1.2334 7.98535 -3.32715c4.58984 -4.50098 4.66113 -11.8691 0.162109 -16.459l-69.832 -69.832c-0.389648 -0.455078 -0.814453 -0.878906 -1.26953 -1.26953c-4.88184 -4.18164 -12.2295 -3.6123 -16.4102 1.26953
c-4.18164 4.88184 -3.61328 12.2295 1.26953 16.4102l69.8311 69.832c2.19727 2.17969 5.1709 3.39355 8.26367 3.37598z" />
    <glyph glyph-name="uniF1AC" unicode="&#xf1ac;" 
d="M279.272 424.727c-6.42578 0 -11.6367 5.20996 -11.6367 11.6367s5.21094 11.6367 11.6367 11.6367c128.532 0 232.728 -104.195 232.728 -232.728c0 -6.42578 -5.20996 -11.6367 -11.6367 -11.6367s-11.6367 5.21094 -11.6367 11.6367
c0 115.679 -93.7754 209.454 -209.454 209.454zM279.272 308.363c-6.42578 0 -11.6367 5.21094 -11.6357 11.6357c0 6.42676 5.21094 11.6367 11.6367 11.6367c64.2656 0 116.363 -52.0977 116.363 -116.363c0 -6.42578 -5.20996 -11.6367 -11.6367 -11.6367
c-6.42578 0 -11.6367 5.21094 -11.6367 11.6367c0 51.4131 -41.6777 93.0908 -93.0908 93.0908zM256.001 215.272c0 12.8535 10.4189 23.2725 23.2715 23.2725c12.8535 0 23.2725 -10.4189 23.2725 -23.2725c0 -12.8525 -10.4189 -23.2715 -23.2725 -23.2715
c-12.8525 0 -23.2715 10.4189 -23.2715 23.2715zM495.593 70.2842c2.23633 -1.38672 4.30566 -3.02637 6.16699 -4.8877c6.54883 -6.54004 10.2324 -15.4141 10.2402 -24.6689c0 -46.5449 -54.6914 -104.727 -122.414 -104.727
c-18.0244 -0.0332031 -35.8311 3.94238 -52.1309 11.6367c-140.549 71.1143 -254.703 185.269 -325.817 325.817c-7.72852 16.3701 -11.7041 34.2607 -11.6367 52.3633c0 67.4902 58.1807 122.182 104.727 122.182c9.2959 0.0224609 18.2168 -3.66309 24.7832 -10.2383
c1.81152 -1.875 3.41211 -3.94336 4.77148 -6.16699l76.5674 -98.5605c6.54785 -6.53906 10.2324 -15.4131 10.2402 -24.6689c-0.115234 -7.62988 -2.77637 -15.002 -7.56348 -20.9453l-27.3457 -27.1133c-1.99707 -1.65625 -3.7041 -3.63477 -5.04785 -5.85352
c-6.66211 -10.9922 -3.15137 -25.3037 7.84082 -31.9648h-0.814453c27.6494 -38.0107 61.1504 -71.3945 99.2588 -98.9092v0.698242c1 -1.41113 2.1543 -2.70703 3.44043 -3.8623c9.56445 -8.58691 24.2773 -7.79492 32.8652 1.76758l27.6943 27.6943
c6.01367 4.61523 13.3662 7.14746 20.9453 7.21484c9.25586 -0.0078125 18.1289 -3.69238 24.6689 -10.2402zM488.727 38.4014c-0.0390625 0.774414 -0.0390625 1.55078 0.00292969 2.32617c0.0849609 3.28809 -1.22559 6.45801 -3.60742 8.72656
c-0.640625 0.580078 -1.34277 1.08789 -2.09473 1.5127l-1.97852 1.39648l-98.2109 76.1006l-2.20996 1.97852c-2.19727 2.17871 -5.16992 3.39258 -8.2627 3.375c-1.88574 -0.0292969 -3.73047 -0.549805 -5.35254 -1.5127l-26.0664 -26.2979l-1.28027 -1.28027
c-18.0557 -17.5137 -46.7588 -17.5137 -64.8145 0l-0.930664 0.698242c-40.2041 28.9053 -75.5557 64.0195 -104.728 104.029l-0.931641 1.39648c-0.0585938 0.0625 -0.118164 0.125 -0.176758 0.188477c-17.5723 18.7617 -16.6074 48.2178 2.15527 65.7891l25.9492 25.7168
c1.08398 1.74609 1.64941 3.76465 1.62891 5.81836c-0.0126953 3.11035 -1.27051 6.08594 -3.49023 8.2627l-1.8623 2.20996l-76.5664 98.5605l-1.28027 1.86133c-0.470703 0.751953 -1.0166 1.4541 -1.62988 2.09375c-2.19629 2.17871 -5.16895 3.39355 -8.26172 3.375
c-32 0 -81.4541 -42.4727 -81.4541 -98.9092c-0.00488281 -14.6143 3.25488 -29.0459 9.54199 -42.2393c0.623047 -1.26953 1.12891 -2.59375 1.5127 -3.95605c68.2002 -132.986 176.423 -241.21 309.41 -309.409c1.32031 -0.345703 2.60547 -0.813477 3.83984 -1.39648
c13.1934 -6.28809 27.624 -9.54785 42.2393 -9.54199c55.1562 0 97.0479 47.2432 98.9092 79.127z" />
    <glyph glyph-name="uniF122" unicode="&#xf122;" 
d="M256 448c141.385 0 256 -114.615 256 -256s-114.615 -256 -256 -256s-256 114.615 -256 256s114.615 256 256 256zM256 -40.7266c52.0117 -0.0175781 102.514 17.4863 143.362 49.6885c-20.2764 23.9521 -46.0195 42.6709 -75.0557 54.5752
c-30.1387 13.498 -29.9053 35.9561 -25.4834 45.8467c2.0166 4.53613 6.68945 7.29297 11.6357 6.86523c19.3965 -1.23633 38.8252 1.82324 56.9023 8.95996c-9.6582 15.127 -19.4336 46.3135 -19.4336 108.218c0 108.917 -48.873 121.484 -85.7598 121.484
c-52.7129 0 -100.306 -8.84375 -101.004 -115.549c0 -66.6777 -8.03027 -100.073 -17.4551 -116.364c15.5713 -8.54688 33.5723 -11.582 51.084 -8.61133c4.05371 1.34863 8.52148 0.365234 11.6357 -2.55957c6.87012 -6.32812 10.1045 -15.6826 8.61133 -24.9023
c-2.32715 -10.8223 -12.1016 -19.084 -28.8584 -24.5527c-29.209 -10.4473 -55.085 -28.5283 -74.9375 -52.3643c41.0869 -32.8662 92.1406 -50.7598 144.756 -50.7344zM423.228 30.1133c89.5332 92.2188 87.3564 239.558 -4.86133 329.091
s-239.558 87.3555 -329.09 -4.86328c-89.5332 -92.2188 -87.3564 -239.557 4.8623 -329.089c22.6045 27.0879 52.1182 47.5547 85.4111 59.2295c4.20312 1.20801 8.14746 3.17969 11.6357 5.81738c-25.5244 -0.933594 -50.7295 5.9248 -72.2617 19.665
c-2.53125 1.48926 -4.40625 3.87988 -5.24902 6.69336c-1.84375 6.15625 1.65332 12.6406 7.80957 14.4844c2.32617 2.0957 17.1045 19.2002 17.1045 108.103c0 122.414 62.4873 138.938 123.578 138.938c72.3779 0 109.149 -48.6396 109.033 -144.64
c0 -84.8291 18.9668 -100.189 20.5957 -101.353c2.34766 -1.00391 4.30078 -2.74902 5.55957 -4.97168c3.16602 -5.59277 1.19727 -12.6924 -4.39551 -15.8584c-21.8545 -11.5205 -46.0547 -17.8896 -70.749 -18.6182c3.2334 -3.48145 7.21094 -6.18652 11.6357 -7.91309
c32.1904 -13.251 60.7246 -34.043 83.2002 -60.625h0.233398c2.01758 1.93359 4.00098 3.90527 5.94727 5.91016z" />
    <glyph glyph-name="uniF205" unicode="&#xf205;" 
d="M151.273 261.818c-6.42773 0 -11.6377 5.20996 -11.6367 11.6357c0 6.42578 5.20898 11.6357 11.6367 11.6357h209.454c6.42676 0 11.6367 -5.20898 11.6367 -11.6357c0 -6.42578 -5.20898 -11.6357 -11.6367 -11.6357h-209.454zM174.545 308.364
c-6.42578 0 -11.6357 5.20996 -11.6357 11.6357s5.20898 11.6357 11.6357 11.6357h162.909c6.42578 0 11.6357 -5.20996 11.6357 -11.6357s-5.20898 -11.6357 -11.6357 -11.6357h-162.909zM395.636 226.909c0 -6.42676 -5.20898 -11.6357 -11.6357 -11.6357h-256
c-6.42578 0 -11.6357 5.20898 -11.6357 11.6357c0 6.42578 5.20898 11.6357 11.6357 11.6357h256c6.42578 0 11.6357 -5.20898 11.6357 -11.6357zM510.72 162.211c0.813477 -1.58594 1.25098 -3.33789 1.2793 -5.12012v-162.909
c0 -6.42578 -5.20898 -11.6357 -11.6357 -11.6357h-488.728c-6.42578 0 -11.6357 5.20898 -11.6357 11.6357v162.909c0.0292969 1.78223 0.466797 3.53418 1.28027 5.12012l116.363 232.728c1.93945 3.95801 5.94824 6.48047 10.3564 6.51562h256
c4.40723 -0.0351562 8.41699 -2.55762 10.3564 -6.51562zM135.215 378.182l-104.728 -209.455h144.06c6.42578 0 11.6357 -5.20898 11.6357 -11.6357c0 -38.5586 31.2598 -69.8174 69.8184 -69.8174s69.8184 31.2578 69.8184 69.8174
c0 6.42578 5.20898 11.6357 11.6357 11.6357h144.058l-104.727 209.455h-241.571zM488.727 5.81836h0.000976562v139.637h-140.45c-5.54883 -41.6631 -38.3262 -74.4414 -79.9893 -79.9893c-50.9629 -6.78613 -97.7783 29.0264 -104.564 79.9893h-140.45v-139.637h465.453z
" />
    <glyph glyph-name="uniF1C3" unicode="&#xf1c3;" 
d="M256 448c141.385 0 256 -114.615 256 -256s-114.615 -256 -256 -256s-256 114.615 -256 256s114.615 256 256 256zM256 -40.7266c57.668 -0.0253906 113.27 21.4688 155.928 60.2754l-328.378 328.378c-38.5225 -42.6826 -59.8818 -98.1152 -59.96 -155.61
c-0.174805 -128.531 103.878 -232.868 232.41 -233.043zM428.451 36.0732c76.6006 87.6943 76.6006 218.507 0 306.203c-84.5547 96.8027 -231.575 106.73 -328.378 22.1748z" />
    <glyph glyph-name="uniF289" unicode="&#xf289;" 
d="M46.5459 296.727c0 6.42676 5.20996 11.6367 11.6357 11.6367c6.42676 0 11.6367 -5.20996 11.6367 -11.6367c0 -6.42578 -5.20996 -11.6357 -11.6367 -11.6357c-6.42578 0 -11.6357 5.20996 -11.6357 11.6357zM372.364 354.909
c25.7061 0 46.5449 -20.8389 46.5439 -46.5449v-325.819c0 -25.7061 -20.8389 -46.5449 -46.5449 -46.5449h-325.818c-25.7061 0 -46.5449 20.8389 -46.5449 46.5459v325.818c0 25.7061 20.8389 46.5449 46.5449 46.5449h325.819zM395.636 -17.4551v256h-372.363v-256
c0 -12.8525 10.4199 -23.2725 23.2725 -23.2725h325.818c12.8525 0 23.2725 10.4199 23.2725 23.2725zM395.636 261.818h0.000976562v46.5449c0 12.8525 -10.4199 23.2725 -23.2725 23.2725h-325.818c-12.8525 0 -23.2725 -10.4199 -23.2725 -23.2725v-46.5449h372.362z
M93.0908 296.727c0 6.42676 5.20996 11.6367 11.6357 11.6367c6.42676 0 11.6367 -5.20996 11.6367 -11.6367c0 -6.42578 -5.20996 -11.6357 -11.6367 -11.6357c-6.42578 0 -11.6357 5.20996 -11.6357 11.6357zM139.637 296.727c0 6.42676 5.20996 11.6367 11.6367 11.6367
c6.42578 0 11.6357 -5.20996 11.6357 -11.6367c0 -6.42578 -5.20996 -11.6357 -11.6357 -11.6357c-6.42676 0 -11.6367 5.20996 -11.6367 11.6357zM465.455 448c25.7061 0 46.5449 -20.8389 46.5439 -46.5449v-325.818c0 -25.7061 -20.8389 -46.5449 -46.5449 -46.5449
h-11.6357c-6.42676 0 -11.6367 5.20898 -11.6367 11.6357s5.20898 11.6367 11.6367 11.6367h11.6357c12.8525 0 23.2725 10.4199 23.2725 23.2725v325.818c0 12.8525 -10.4199 23.2725 -23.2725 23.2725h-325.818c-12.8525 0 -23.2725 -10.4199 -23.2725 -23.2725v-11.6357
c0 -6.42676 -5.20898 -11.6367 -11.6367 -11.6367c-6.42578 0 -11.6357 5.20898 -11.6357 11.6367v11.6357c0 25.7061 20.8389 46.5449 46.5449 46.5449h325.819zM360.727 308.364c6.42773 0 11.6377 -5.20996 11.6367 -11.6367
c0 -6.42578 -5.20898 -11.6357 -11.6367 -11.6357h-162.908c-6.42676 0 -11.6367 5.20898 -11.6367 11.6357s5.20898 11.6367 11.6367 11.6367h162.908z" />
    <glyph glyph-name="uniF20E" unicode="&#xf20e;" 
d="M465.427 122.227c25.7021 0 46.5381 -20.8359 46.5381 -46.54v-46.5381c0 -25.7031 -20.8359 -46.5391 -46.5381 -46.5391h-1.16406c-5.51074 -27.1338 -29.3809 -46.625 -57.0693 -46.5977c-32.1289 0.0322266 -58.1475 26.1035 -58.1152 58.2324v116.348
c0 12.5879 4.08301 24.835 11.6348 34.9043c19.2773 25.7031 55.7412 30.9121 81.4434 11.6348v151.252c0 64.2578 -52.0908 116.349 -116.348 116.349h-139.617c-64.2568 0 -116.348 -52.0908 -116.348 -116.349v-151.252c10.0693 7.55176 22.3164 11.6348 34.9043 11.6348
c32.1279 0 58.1738 -26.0459 58.1738 -58.1748v-116.345c0.0283203 -27.6885 -19.4639 -51.5586 -46.5977 -57.0693c-31.4854 -6.39453 -62.1934 13.9482 -68.5869 45.4336h-1.16406c-25.7021 0 -46.5381 20.8369 -46.5381 46.5391v46.5381
c0 25.7031 20.8359 46.5391 46.5381 46.5391v186.156c0 77.1084 62.5098 139.617 139.618 139.617h139.617c77.1084 0 139.618 -62.5088 139.618 -139.617v-186.156zM46.5732 5.87891v93.0781c-12.8506 0 -23.2695 -10.4189 -23.2695 -23.2705v-46.5381
c0 -12.8516 10.4189 -23.2695 23.2695 -23.2695zM104.748 145.496c-19.2773 0 -34.9043 -15.6279 -34.9043 -34.9053v-116.347c0 -19.2773 15.627 -34.9043 34.9043 -34.9043s34.9043 15.627 34.9043 34.9043v116.348c0 19.2773 -15.627 34.9043 -34.9043 34.9043z
M442.156 -5.75586v116.347c0 19.2773 -15.627 34.9043 -34.9043 34.9043s-34.9043 -15.627 -34.9043 -34.9043v-116.347c0 -19.2773 15.627 -34.9043 34.9043 -34.9043s34.9043 15.627 34.9043 34.9043zM488.695 29.1484v46.5381
c0 12.8525 -10.4189 23.2705 -23.2695 23.2705v-93.0781c12.8506 0 23.2695 10.418 23.2695 23.2695z" />
    <glyph glyph-name="uniF174" unicode="&#xf174;" 
d="M197.818 343.275c-6.42676 0 -11.6367 5.20996 -11.6367 11.6367c0 6.42578 5.20898 11.6357 11.6367 11.6357h46.5449v46.5449c0 6.42578 5.20996 11.6357 11.6357 11.6357s11.6357 -5.20898 11.6357 -11.6357v-46.5459h46.5449
c6.42676 0 11.6367 -5.20898 11.6367 -11.6357c0 -6.42578 -5.20898 -11.6357 -11.6367 -11.6357h-46.5449v-46.5449c0 -6.42676 -5.20996 -11.6367 -11.6357 -11.6367s-11.6357 5.20898 -11.6357 11.6367v46.5449h-46.5449zM488.727 238.548
c12.8535 0 23.2734 -10.4199 23.2744 -23.2725v-23.2734c0 -12.8535 -10.4199 -23.2734 -23.2734 -23.2734h-4.6543l-41.8916 -200.61c-1.31152 -5.32031 -6.1582 -9.00391 -11.6357 -8.84375h-349.091c-5.47754 -0.15918 -10.3232 3.52344 -11.6357 8.84375
l-41.8916 200.61h-4.6543c-12.8535 0 -23.2734 10.4209 -23.2734 23.2734v23.2734c0 12.8525 10.4199 23.2725 23.2734 23.2725h465.453zM51.665 168.73l9.77539 -46.5459h77.498l-7.33105 46.5459h-79.9424zM76.2178 52.3662h73.7754l-7.33105 46.5449h-76.335z
M90.7637 -17.4521h70.6338l-7.33105 46.5449h-72.6113zM244.364 -17.4521v46.5449h-67.375l7.33105 -46.5449h60.0439zM244.364 52.3662v46.5449h-78.4297l7.33105 -46.5449h71.0986zM244.364 122.184v46.5449h-89.3672l7.33105 -46.5449h82.0361zM327.68 -17.4521
l7.33105 46.5449h-67.375v-46.5449h60.0439zM338.735 52.3662l7.33105 46.5449h-78.4297v-46.5449h71.0986zM267.636 122.184v0.000976562h82.0361l7.33105 46.5459h-89.3672v-46.5469zM421.12 -17.4521l9.42578 46.5449h-71.9131l-7.33105 -46.5449h69.8184z
M435.782 52.3662l9.89062 46.5449h-76.335l-7.33105 -46.5449h73.7754zM450.444 122.184l9.77441 46.5449h-79.9414l-7.33105 -46.5449h77.498zM488.727 192.002h0.000976562v23.2734h-465.454v-23.2734h465.453z" />
    <glyph glyph-name="uniF195" unicode="&#xf195;" 
d="M383.827 262.069c-19.2539 0 -34.8623 15.6094 -34.8613 34.8623c0 19.2539 15.6074 34.8613 34.8613 34.8613s34.8623 -15.6074 34.8623 -34.8613s-15.6084 -34.8623 -34.8623 -34.8623zM383.827 308.553c-6.41797 0 -11.6211 -5.20312 -11.6201 -11.6201
c0 -6.41699 5.20312 -11.6201 11.6201 -11.6201c6.41797 0 11.6211 5.20117 11.6211 11.6201c0 6.41699 -5.20215 11.6201 -11.6211 11.6201zM488.413 424.759c12.8359 0 23.2402 -10.4053 23.2402 -23.2412v-23.2412c0 -12.8359 -10.4062 -23.2412 -23.2412 -23.2412
v-278.896c0 -12.8359 -10.4062 -23.2422 -23.2422 -23.2422h-197.55v-30.0967l66.2373 -66.2373c0.454102 -0.388672 0.87793 -0.813477 1.2666 -1.26758c4.17578 -4.87402 3.60742 -12.2109 -1.2666 -16.3848c-4.875 -4.17578 -12.2109 -3.60742 -16.3848 1.26758
l-61.4736 61.4727l-61.5889 -61.5898c-0.388672 -0.454102 -0.813477 -0.87793 -1.26758 -1.26758c-4.87402 -4.1748 -12.2109 -3.60645 -16.3848 1.26758c-4.17578 4.87402 -3.60742 12.21 1.26758 16.3848l66.3535 66.3545v30.0967h-197.55
c-12.8359 0 -23.2422 10.4062 -23.2422 23.2422v278.896c-12.8359 0 -23.2412 10.4053 -23.2412 23.2412v23.2412c0 12.8359 10.4053 23.2422 23.2412 23.2422h209.172c0 12.835 10.4062 23.2412 23.2422 23.2412c12.835 0 23.2402 -10.4062 23.2402 -23.2412h209.172z
M465.171 76.1396v278.896h-418.342v-278.896h418.342zM488.413 378.276v23.2412h-464.826v-23.2412h464.826zM104.932 122.622c-6.41797 0 -11.6211 5.20312 -11.6211 11.6201c0.0751953 2.25098 0.801758 4.43164 2.09277 6.27637l92.9648 139.447
c2.08789 3.25684 5.66113 5.26074 9.5293 5.3457c3.10547 -0.0136719 6.07617 -1.26855 8.25098 -3.48633l84.7119 -84.7158l38.2324 38.3486c2.19238 2.17578 5.16211 3.3877 8.25098 3.37012c3.63672 -0.0634766 7.03418 -1.82617 9.18066 -4.76465l69.7236 -92.9648
c1.52637 -1.96484 2.38281 -4.36816 2.44043 -6.85645c0 -6.41699 -5.20215 -11.6201 -11.6201 -11.6201h-302.137zM199.757 255.445l-73.0947 -109.582h257.165l-47.7598 63.5645l-36.9541 -36.9541c-4.53223 -4.50586 -11.8525 -4.50586 -16.3848 0z" />
    <glyph glyph-name="uniF27E" unicode="&#xf27e;" 
d="M383.988 448c6.42676 0 11.6367 -5.20996 11.6377 -11.6367v-488.771c-0.0107422 -2.97461 -1.16113 -5.83203 -3.21387 -7.98535c-4.43555 -4.65137 -11.8018 -4.82715 -16.4541 -0.393555l-256.021 244.386c-0.103516 0.0986328 -0.204102 0.199219 -0.303711 0.302734
c-4.45996 4.62793 -4.32422 11.9951 0.303711 16.4551l256.021 244.386c2.15723 2.0791 5.03418 3.24609 8.03027 3.25781zM372.35 -25.1758v434.308l-227.509 -217.154z" />
    <glyph glyph-name="uniF1EB" unicode="&#xf1eb;" 
d="M370.385 331.636l-98.4424 -136.145l104.145 -143.127h-33.0469l-87.04 123.229l-89.251 -123.229h-30.7197l103.215 143.825l-97.6289 135.446h32.3486l82.0361 -116.362l83.7822 116.362h30.6025zM256 448c141.385 0 256 -114.615 256 -256s-114.615 -256 -256 -256
s-256 114.615 -256 256s114.615 256 256 256zM256 -40.7266c128.532 0 232.727 104.194 232.727 232.727s-104.194 232.727 -232.727 232.727s-232.727 -104.194 -232.727 -232.727s104.194 -232.727 232.727 -232.727z" />
    <glyph glyph-name="uniF2AA" unicode="&#xf2aa;" 
d="M162.909 5.81836v372.363h58.1816v-372.363h-58.1816zM244.364 5.81836v372.363h23.2725v-372.363h-23.2725zM116.364 5.81836v372.363h23.2725v-372.363h-23.2725zM46.5449 5.81836v372.363h46.5449v-372.363h-46.5449zM0 354.909
c0 12.8525 10.4199 23.2725 23.2734 23.2725v-372.363c-12.8535 0 -23.2734 10.4199 -23.2734 23.2725v325.818zM488.727 378.182c12.8535 0 23.2734 -10.4199 23.2734 -23.2725v-325.818c0 -12.8525 -10.4199 -23.2725 -23.2734 -23.2725h-23.2725v372.363h23.2725z
M290.909 5.81836v372.363h23.2725v-372.363h-23.2725zM418.909 5.81836v372.363h23.2725v-372.363h-23.2725zM337.455 5.81836v372.363h58.1816v-372.363h-58.1816z" />
    <glyph glyph-name="uniF244" unicode="&#xf244;" 
d="M302.545 193.745c5.55371 -4.12109 10.1904 -9.35254 13.6143 -15.3594c3.62207 -7.45801 5.37891 -15.6836 5.12012 -23.9707c0.186523 -8.80762 -1.4375 -17.5615 -4.77148 -25.7158c-2.91016 -6.93262 -7.32227 -13.1309 -12.916 -18.1533
c-5.55762 -5.12305 -12.0869 -9.0791 -19.2002 -11.6357c-6.86328 -2.7832 -14.1338 -4.43457 -21.5264 -4.88672v-18.3857h-15.3604v18.7354c-7.96973 0.0771484 -15.8574 1.61523 -23.2725 4.53809c-7.28223 2.49121 -13.9766 6.45117 -19.665 11.6357
c-5.63574 5.37402 -10.0078 11.9307 -12.8008 19.2002c-3.09863 8.32812 -4.52148 17.1846 -4.18848 26.0645h28.625c-0.710938 -9.7334 1.91602 -19.4199 7.44727 -27.4619c5.46094 -7.24707 14.2217 -11.2324 23.2725 -10.5889v63.7676
c-6.37598 1.96094 -12.6309 4.29199 -18.7344 6.98145c-6.71973 2.61621 -13.0293 6.18262 -18.7354 10.5889c-5.40332 4.41504 -9.80566 9.92871 -12.916 16.1748c-3.65625 7.57031 -5.41309 15.918 -5.12012 24.3193c-0.143555 7.67676 1.48926 15.2832 4.77148 22.2256
c3.03125 6.19629 7.4043 11.6416 12.7998 15.9414c5.55176 4.40332 11.8604 7.75488 18.6182 9.8916c6.34473 2.27539 13.041 3.41895 19.7812 3.375v17.3379h15.8252v-17.1055c6.64648 0.0478516 13.2529 -1.01367 19.5488 -3.1416
c6.51562 -1.95508 12.5693 -5.2002 17.8047 -9.54199c5.01465 -4.42871 8.9873 -9.91309 11.6357 -16.0586c3.09473 -7.15527 4.60352 -14.8965 4.42188 -22.6904h-29.207c0.205078 7.43945 -2.18066 14.7197 -6.74902 20.5957
c-4.44141 5.16992 -11.1426 7.8252 -17.9199 7.09766v-55.6211c6.91309 -2.08105 13.7109 -4.52832 20.3643 -7.33105c6.97852 -2.62402 13.5273 -6.27148 19.4326 -10.8223zM247.389 215.273v52.4795c-6.91895 0.506836 -13.7734 -1.6123 -19.1992 -5.93457
c-5.4375 -5.02637 -8.23145 -12.291 -7.56445 -19.665c-0.115234 -3.77051 0.767578 -7.50293 2.55957 -10.8223c1.65918 -2.9541 3.87109 -5.5625 6.5166 -7.67969c2.7793 -2.17578 5.88086 -3.90332 9.19238 -5.12012c2.74805 -1.29395 5.58789 -2.38281 8.49512 -3.25781
zM283.229 126.138c6.30273 5.88574 9.56152 14.332 8.84473 22.9238c0.391602 8.16016 -3.32031 15.9766 -9.8916 20.8291c-3.08301 2.34766 -6.49316 4.22949 -10.124 5.58496c-3.0293 1.41602 -6.1377 2.66016 -9.30859 3.72461v-60.9756
c7.57617 0.305664 14.8125 3.22559 20.4795 8.2627v-0.349609zM256 448c141.385 0 256 -114.615 256 -256s-114.615 -256 -256 -256s-256 114.615 -256 256s114.615 256 256 256zM256 -40.7266c128.532 0 232.727 104.194 232.727 232.727
s-104.194 232.727 -232.727 232.727s-232.727 -104.194 -232.727 -232.727s104.194 -232.727 232.727 -232.727z" />
    <glyph glyph-name="uniF284" unicode="&#xf284;" 
d="M256 192c51.4131 0 93.0908 -41.6777 93.0908 -93.0908s-41.6777 -93.0908 -93.0908 -93.0908s-93.0908 41.6777 -93.0908 93.0908s41.6777 93.0908 93.0908 93.0908zM256 29.0908c38.5596 0 69.8184 31.2588 69.8184 69.8184
c0 38.5586 -31.2598 69.8174 -69.8184 69.8174s-69.8184 -31.2578 -69.8184 -69.8174s31.2588 -69.8184 69.8184 -69.8184zM488.727 448c12.8535 0 23.2734 -10.4199 23.2734 -23.2734v-349.091c0 -12.8525 -10.4199 -23.2725 -23.2734 -23.2725h-23.2725v-69.8184
c0 -25.7061 -20.8389 -46.5449 -46.5449 -46.5449h-325.818c-25.7061 0 -46.5449 20.8389 -46.5449 46.5449v69.8184h-23.2725c-12.8535 0 -23.2734 10.4199 -23.2734 23.2725v349.091c0 12.8535 10.4199 23.2734 23.2734 23.2734h465.453zM442.182 -17.4551v209.455
c0 12.8525 -10.4199 23.2734 -23.2725 23.2734h-46.5449c-46.5459 0 -46.5459 46.5449 -81.4551 46.5449h-69.8184c-34.9102 0 -34.9102 -46.5449 -81.4551 -46.5449h-46.5449c-12.8525 0 -23.2725 -10.4209 -23.2725 -23.2734v-209.455
c0 -12.8525 10.4199 -23.2725 23.2725 -23.2725h325.818c12.8525 0 23.2725 10.4199 23.2725 23.2725zM488.727 75.6357h0.000976562v349.091h-465.454v-349.091h23.2725v116.364c0 25.7061 20.8389 46.5449 46.5449 46.5449h46.5449
c34.9102 0 34.9102 46.5449 81.4551 46.5449h69.8184c46.5459 0 46.5459 -46.5449 81.4551 -46.5449h46.5449c25.7061 0 46.5449 -20.8389 46.5449 -46.5449v-116.364h23.2725zM256 145.455c25.7061 0 46.5449 -20.8389 46.5449 -46.5449
s-20.8389 -46.5449 -46.5449 -46.5449s-46.5449 20.8389 -46.5449 46.5449s20.8389 46.5449 46.5449 46.5449zM256 75.6357c12.8525 0 23.2734 10.4199 23.2734 23.2734c0 12.8525 -10.4209 23.2725 -23.2734 23.2725s-23.2734 -10.4199 -23.2734 -23.2725
c0 -12.8535 10.4209 -23.2734 23.2734 -23.2734zM384 110.545c0 6.42676 5.20996 11.6357 11.6357 11.6357c6.42676 0 11.6367 -5.20898 11.6367 -11.6357s-5.20996 -11.6357 -11.6367 -11.6357c-6.42578 0 -11.6357 5.20898 -11.6357 11.6357zM49.9199 311.738
l-0.0673828 0.0673828c-4.52539 4.56348 -4.49512 11.9307 0.0673828 16.4561l46.5449 46.5449c4.56348 4.56348 11.9609 4.56348 16.5244 0c4.5625 -4.5625 4.5625 -11.9609 0 -16.5234l-26.7646 -26.6475h88.3203c6.42578 0 11.6357 -5.20996 11.6357 -11.6357
s-5.20898 -11.6357 -11.6357 -11.6357h-88.3203l26.6475 -26.7646c0.455078 -0.388672 0.878906 -0.813477 1.26855 -1.26855c4.18164 -4.88086 3.6123 -12.2275 -1.26855 -16.4072c-4.88086 -4.18066 -12.2275 -3.6123 -16.4072 1.26953zM372.363 168.727
c0 12.8535 10.4189 23.2734 23.2725 23.2734s23.2734 -10.4199 23.2734 -23.2734c0 -12.8525 -10.4199 -23.2725 -23.2734 -23.2725s-23.2725 10.4199 -23.2725 23.2725zM337.455 308.364c-6.42676 0 -11.6357 5.20996 -11.6357 11.6357s5.20898 11.6357 11.6357 11.6357
h88.3203l-26.6475 26.7646c-4.5625 4.5293 -4.58887 11.9014 -0.0576172 16.4648c4.5293 4.5625 11.9014 4.58887 16.4648 0.0576172l46.5449 -46.5449c0.0214844 -0.0214844 0.0449219 -0.0439453 0.0673828 -0.0673828
c4.52539 -4.5625 4.49512 -11.9297 -0.0673828 -16.4551l-46.5449 -46.5459c-0.388672 -0.454102 -0.814453 -0.878906 -1.26953 -1.26855c-4.88086 -4.18066 -12.2266 -3.6123 -16.4062 1.26855c-4.18164 4.88184 -3.6123 12.2275 1.26855 16.4072l26.6475 26.6475
h-88.3203z" />
    <glyph glyph-name="uniF256" unicode="&#xf256;" 
d="M337.455 122.182c-6.42676 0 -11.6357 5.20996 -11.6357 11.6367c0 6.42578 5.20898 11.6357 11.6357 11.6357h46.5449c6.42578 0 11.6357 -5.20996 11.6357 -11.6357c0 -6.42676 -5.20898 -11.6367 -11.6357 -11.6367h-46.5449zM337.455 168.727
c-6.42676 0 -11.6367 5.21191 -11.6367 11.6377s5.20898 11.6357 11.6357 11.6357h93.0908c6.42676 0 11.6367 -5.21094 11.6367 -11.6367c0 -6.42676 -5.20898 -11.6367 -11.6357 -11.6367h-93.0908zM337.455 215.273c-6.42676 0 -11.6367 5.20898 -11.6357 11.6357
c0 6.42578 5.20898 11.6357 11.6357 11.6357h46.5449c6.42578 0 11.6357 -5.20898 11.6357 -11.6357c0 -6.42578 -5.20898 -11.6357 -11.6357 -11.6357h-46.5449zM58.1816 98.9092c6.42676 0 11.6367 -5.20996 11.6367 -11.6367s-5.20898 -11.6367 -11.6367 -11.6367
h-34.9082c-12.8535 0 -23.2734 10.4199 -23.2734 23.2734v279.272c0 12.8535 10.4199 23.2734 23.2734 23.2734h372.362c12.8535 0 23.2734 -10.4199 23.2734 -23.2734v-34.9082c0 -6.42676 -5.20898 -11.6367 -11.6357 -11.6367s-11.6367 5.20898 -11.6367 11.6367v34.9082
h-372.363v-279.272h34.9082zM488.727 308.364c12.8535 0 23.2734 -10.4199 23.2744 -23.2734v-279.272c0 -12.8535 -10.4199 -23.2734 -23.2734 -23.2734h-372.363c-12.8535 0 -23.2734 10.4199 -23.2734 23.2734v279.272c0 12.8535 10.4199 23.2734 23.2734 23.2734
h372.362zM488.727 5.81836v279.272h-372.363v-279.272h93.0908v23.2725h-11.6357c-6.42676 0 -11.6367 5.20996 -11.6367 11.6357c0 6.42676 5.20898 11.6367 11.6367 11.6367h46.5449c6.42578 0 11.6357 -5.20996 11.6357 -11.6367
c0 -6.42578 -5.20898 -11.6357 -11.6357 -11.6357h-11.6367v-23.2725h139.637v23.2725h-11.6367c-6.42578 0 -11.6357 5.20996 -11.6357 11.6357c0 6.42676 5.20898 11.6367 11.6357 11.6367h46.5459c6.42578 0 11.6357 -5.20996 11.6357 -11.6367
c0 -6.42578 -5.20898 -11.6357 -11.6357 -11.6357h-11.6367v-23.2725h93.0908zM174.545 122.182c-6.42578 0 -11.6357 5.20996 -11.6357 11.6367c0 6.42578 5.20898 11.6357 11.6357 11.6357h93.0908c6.42578 0 11.6367 -5.20996 11.6367 -11.6357
c0 -6.42676 -5.20898 -11.6367 -11.6367 -11.6367h-93.0908zM174.545 168.727c-6.42578 0 -11.6348 5.21191 -11.6348 11.6377s5.20898 11.6357 11.6357 11.6357h46.5449c6.42676 0 11.6348 -5.21094 11.6348 -11.6367c0 -6.42676 -5.20898 -11.6367 -11.6357 -11.6367
h-46.5449zM174.545 215.273c-6.42578 0 -11.6357 5.20898 -11.6357 11.6357c0 6.42578 5.20898 11.6357 11.6357 11.6357h93.0908c6.42578 0 11.6367 -5.20898 11.6367 -11.6357c0 -6.42578 -5.20898 -11.6357 -11.6367 -11.6357h-93.0908z" />
    <glyph glyph-name="uniF173" unicode="&#xf173;" 
d="M247.738 265.195l-46.4287 46.5459c-4.5625 4.53027 -4.58887 11.9014 -0.0576172 16.4648c4.53027 4.5625 11.9023 4.58887 16.4648 0.0576172l26.6475 -26.7637v111.593c0 6.42578 5.20996 11.6357 11.6357 11.6357s11.6357 -5.20898 11.6357 -11.6357v-111.594
l26.6475 26.7637c4.56152 4.53125 11.9336 4.50488 16.4648 -0.0576172s4.50488 -11.9336 -0.0576172 -16.4648l-46.5459 -46.5449c-4.53711 -4.5127 -11.8672 -4.5127 -16.4062 0zM488.727 238.548c12.8535 0 23.2734 -10.4199 23.2744 -23.2725v-23.2734
c0 -12.8535 -10.4199 -23.2734 -23.2734 -23.2734h-4.6543l-41.8916 -200.61c-1.31152 -5.32031 -6.1582 -9.00391 -11.6357 -8.84375h-349.091c-5.47754 -0.15918 -10.3232 3.52344 -11.6357 8.84375l-41.8916 200.61h-4.6543
c-12.8535 0 -23.2734 10.4209 -23.2734 23.2734v23.2734c0 12.8525 10.4199 23.2725 23.2734 23.2725h465.453zM51.665 168.73l9.77539 -46.5459h77.498l-7.33105 46.5459h-79.9424zM76.2178 52.3662h73.7754l-7.33105 46.5449h-76.335zM90.8799 -17.4521h70.5176
l-7.33105 46.5449h-72.6113zM244.364 -17.4521v46.5449h-67.375l7.33105 -46.5449h60.0439zM244.364 52.3662v46.5449h-78.4297l7.33105 -46.5449h71.0986zM244.364 122.184v46.5449h-89.3672l7.33105 -46.5449h82.0361zM327.68 -17.4521l7.33105 46.5449h-67.375v-46.5449
h60.0439zM338.735 52.3662l7.33105 46.5449h-78.4297v-46.5449h71.0986zM267.636 122.184v0.000976562h82.0361l7.33105 46.5459h-89.3672v-46.5469zM421.12 -17.4521l9.42578 46.5449h-71.9131l-7.33105 -46.5449h69.8184zM435.782 52.3662l9.89062 46.5449h-76.335
l-7.33105 -46.5449h73.7754zM450.444 122.184l9.77441 46.5449h-79.9414l-7.33105 -46.5449h77.498zM488.727 192.002h0.000976562v23.2734h-465.454v-23.2734h465.453z" />
    <glyph glyph-name="uniF209" unicode="&#xf209;" 
d="M256 448c141.385 0 256 -114.615 256 -256s-114.615 -256 -256 -256s-256 114.615 -256 256s114.615 256 256 256zM256 424.727c-57.666 0.0146484 -113.264 -21.4785 -155.928 -60.2754l57.5996 -58.1826c56.6104 48.4219 140.045 48.4219 196.655 0l57.5996 58.1826
c-42.6631 38.7969 -98.2607 60.2891 -155.927 60.2754zM384 192c0 70.6924 -57.3076 128 -128 128s-128 -57.3076 -128 -128s57.3076 -128 128 -128s128 57.3076 128 128zM23.2734 192c-0.0253906 -57.668 21.4688 -113.27 60.2754 -155.928l57.6006 57.0176
c-48.4219 56.6104 -48.4219 140.045 0 196.655l-57.6006 58.1816c-38.8066 -42.6572 -60.3008 -98.2588 -60.2754 -155.927zM256 -40.7266c57.666 -0.0146484 113.264 21.4785 155.928 60.2754l-57.5996 58.1826c-56.6104 -48.4219 -140.045 -48.4219 -196.655 0
l-57.5996 -58.1826c42.6631 -38.7969 98.2607 -60.2891 155.927 -60.2754zM428.451 36.6553c80.4336 88.3916 80.4336 223.462 0 311.854l-57.6006 -58.1816c48.4219 -56.6104 48.4219 -140.045 0 -196.655l57.6006 -57.5996v0.582031z" />
    <glyph glyph-name="uniF1F1" unicode="&#xf1f1;" 
d="M186.182 308.364c-25.707 0 -46.5449 20.8389 -46.5449 46.5449s20.8389 46.5449 46.5449 46.5449h279.273c25.7061 0 46.5449 -20.8389 46.5449 -46.5449s-20.8389 -46.5449 -46.5449 -46.5449h-279.273zM186.182 378.182
c-12.8525 0 -23.2725 -10.4199 -23.2725 -23.2725c0 -12.8535 10.4199 -23.2734 23.2725 -23.2734h279.273c12.8525 0 23.2725 10.4199 23.2725 23.2734c0 12.8525 -10.4199 23.2725 -23.2725 23.2725h-279.273zM46.5449 238.545
c25.707 0 46.5449 -20.8389 46.5449 -46.5449s-20.8389 -46.5449 -46.5449 -46.5449s-46.5449 20.8389 -46.5449 46.5449s20.8389 46.5449 46.5449 46.5449zM46.5449 168.727c12.8545 0 23.2734 10.4209 23.2734 23.2734s-10.4199 23.2734 -23.2734 23.2734
c-12.8525 0 -23.2725 -10.4209 -23.2725 -23.2734s10.4199 -23.2734 23.2725 -23.2734zM465.455 75.6357c25.7061 0 46.5449 -20.8389 46.5449 -46.5449s-20.8389 -46.5449 -46.5449 -46.5449h-279.273c-25.7061 0 -46.5449 20.8389 -46.5449 46.5449
s20.8389 46.5449 46.5449 46.5449h279.273zM465.455 5.81836c12.8525 0 23.2715 10.4199 23.2725 23.2725c0 12.8535 -10.4199 23.2734 -23.2725 23.2734h-279.273c-12.8525 0 -23.2725 -10.4199 -23.2725 -23.2734c0 -12.8525 10.4199 -23.2725 23.2725 -23.2725h279.273z
M465.455 238.545c25.7061 0 46.5449 -20.8389 46.5449 -46.5449s-20.8389 -46.5449 -46.5449 -46.5449h-279.273c-25.7061 0 -46.5449 20.8389 -46.5449 46.5449s20.8389 46.5449 46.5449 46.5449h279.273zM465.455 168.727c12.8525 0 23.2715 10.4209 23.2725 23.2734
c0 12.8525 -10.4199 23.2734 -23.2725 23.2734h-279.273c-12.8525 0 -23.2725 -10.4209 -23.2725 -23.2734s10.4199 -23.2734 23.2725 -23.2734h279.273zM46.5449 401.455c25.707 0 46.5449 -20.8398 46.5449 -46.5459s-20.8389 -46.5449 -46.5449 -46.5449
s-46.5449 20.8389 -46.5449 46.5449s20.8389 46.5459 46.5449 46.5459zM46.5449 331.636c12.8545 0 23.2734 10.4199 23.2734 23.2734c0 12.8525 -10.4199 23.2725 -23.2734 23.2725c-12.8525 0 -23.2725 -10.4199 -23.2725 -23.2725
c0 -12.8535 10.4199 -23.2734 23.2725 -23.2734zM46.5449 75.6357c25.707 0 46.5459 -20.8389 46.5449 -46.5449c0 -25.7061 -20.8389 -46.5449 -46.5449 -46.5449s-46.5449 20.8389 -46.5449 46.5449s20.8389 46.5449 46.5449 46.5449zM46.5449 5.81836
c12.8545 0 23.2734 10.4199 23.2734 23.2725c0 12.8535 -10.4199 23.2734 -23.2734 23.2734c-12.8525 0 -23.2725 -10.4199 -23.2725 -23.2734c0 -12.8525 10.4199 -23.2725 23.2725 -23.2725z" />
    <glyph glyph-name="uniF168" unicode="&#xf168;" 
d="M511.854 226.99c0.111328 -0.927734 0.111328 -1.86426 -0.000976562 -2.79297l-46.5264 -209.37c-0.961914 -3.55566 -3.55078 -6.44629 -6.97949 -7.79297c4.59766 -7.41797 7.01562 -15.9795 6.97852 -24.707c-0.110352 -25.6953 -21.0293 -46.4375 -46.7256 -46.3271
c-25.6953 0.110352 -46.4365 21.0293 -46.3271 46.7246c0.0507812 8.18262 2.25684 16.207 6.39746 23.2637h-129.111c4.1416 -7.05664 6.34766 -15.082 6.39746 -23.2637c0 -25.6953 -20.8301 -46.5254 -46.5264 -46.5254c-25.6953 0 -46.5254 20.8301 -46.5254 46.5254
c-0.0820312 8.50879 2.1709 16.8779 6.5127 24.1943c-3.14453 1.36328 -5.52734 4.0459 -6.5127 7.32812l-72.1172 270.901h-79.0947c-6.42383 0 -11.6318 5.20703 -11.6318 11.6309s5.20703 11.6318 11.6318 11.6318h87.9355
c5.1377 0.0146484 9.67676 -3.3418 11.166 -8.25879l16.5176 -61.5312h372.91c6.42383 0 11.6318 -5.20703 11.6318 -11.6309zM133.477 215.357l12.4463 -46.5264h69.7891l-5.11719 46.5264h-77.1182zM164.649 99.042h58.9717l-5.2334 46.5254h-66.1846zM170.931 75.7783
l12.5625 -46.5264h47.8057l-5.11816 46.5264h-55.25zM209.431 -40.5381c12.8486 0 23.2637 10.415 23.2637 23.2627c0 12.8486 -10.416 23.2637 -23.2637 23.2637s-23.2637 -10.415 -23.2637 -23.2637c0 -12.8477 10.416 -23.2627 23.2637 -23.2627zM302.484 29.252v46.5264
h-52.9248l5.11816 -46.5264h47.8066zM302.484 99.042v46.5254h-60.7178l5.23438 -46.5254h55.4834zM302.484 168.831v46.5264h-68.3945l5.11816 -46.5264h63.2764zM373.555 29.252l5.11621 46.5264h-52.9229v-46.5264h47.8066zM381.347 99.042l5.11816 46.5254h-60.7168
v-46.5254h55.5986zM389.14 168.831l5.00195 46.5264h-68.3936v-46.5264h63.3916zM418.801 -40.5381c12.8477 0 23.2637 10.415 23.2637 23.2627c0 12.8486 -10.416 23.2637 -23.2637 23.2637s-23.2637 -10.415 -23.2637 -23.2637
c0 -12.8477 10.416 -23.2627 23.2637 -23.2627zM444.391 29.252l10.3525 46.5264h-52.6914l-5.11816 -46.5264h47.457zM459.86 99.042l10.3525 46.5254h-60.3682l-5.11816 -46.5254h55.1338zM475.331 168.831l10.3516 46.5264h-68.1611l-5.11816 -46.5264h62.9277z
M267.589 378.201c-3.12402 -0.0185547 -6.125 1.22168 -8.3252 3.44043c-4.52344 4.56152 -4.49316 11.9258 0.0683594 16.4492l46.5254 46.5264c4.53613 4.51074 11.8633 4.51074 16.4004 0l46.5254 -46.5264c0.455078 -0.388672 0.878906 -0.813477 1.26855 -1.26758
c4.17969 -4.87988 3.61035 -12.2227 -1.26855 -16.4004c-4.87891 -4.17969 -12.2217 -3.61133 -16.4004 1.26855l-26.6357 26.6357v-134.81c0 -6.42285 -5.20801 -11.6309 -11.6318 -11.6309c-6.42285 0 -11.6309 5.20703 -11.6309 11.6309v134.811l-26.6367 -26.7529
c-2.19531 -2.17871 -5.16699 -3.3916 -8.25879 -3.37402z" />
    <glyph glyph-name="uniF1B9" unicode="&#xf1b9;" 
d="M185.973 110.329c-0.0439453 -3.07031 -1.29883 -6.00098 -3.49316 -8.15039l-116.438 -116.437c-4.35938 -3.7334 -10.7891 -3.7334 -15.1475 0c-4.88379 4.18262 -5.45215 11.5332 -1.26953 16.417l116.438 116.438c2.20312 2.22168 5.20703 3.46191 8.33496 3.44434
c6.42969 -0.0380859 11.6123 -5.28125 11.5752 -11.7119zM500.355 448c6.43066 0 11.6436 -5.21289 11.6436 -11.6436c-0.225586 -1.79102 -0.862305 -3.50488 -1.86328 -5.00684l-209.588 -489.039c-1.4082 -2.72852 -3.83594 -4.79199 -6.75684 -5.73828
c-6.11816 -1.9834 -12.6846 1.36816 -14.668 7.48535l-78.7119 192.588l-192.356 79.1768c-2.91992 0.947266 -5.34863 3.01074 -6.75684 5.73926c-2.94824 5.71582 -0.704102 12.7383 5.01074 15.6855l489.04 209.588c1.56152 0.756836 3.27148 1.15527 5.00684 1.16504z
M41.2402 226.768l165.226 -67.8828l242.308 242.54zM290.767 -22.7588l174.657 408.115l-242.54 -242.89zM111.463 100.792c-4.88379 -4.18262 -12.2344 -3.61426 -16.417 1.27051c-4.18359 4.88379 -3.61426 12.2344 1.26953 16.417l11.6436 11.6436
c0.389648 0.455078 0.814453 0.879883 1.26953 1.26953c4.88477 4.18359 12.2354 3.61426 16.418 -1.26953c4.18359 -4.88379 3.61426 -12.2354 -1.27051 -16.418l-11.6426 -11.6426c-0.389648 -0.456055 -0.814453 -0.879883 -1.27051 -1.27051zM185.973 63.7549
c2.99219 -0.0419922 5.85156 -1.23438 7.98926 -3.32812c4.5918 -4.50293 4.66406 -11.875 0.162109 -16.4668l-34.9326 -34.9316c-0.388672 -0.455078 -0.814453 -0.878906 -1.26953 -1.26953c-4.88379 -4.18359 -12.2344 -3.61426 -16.418 1.26953
c-4.18359 4.88477 -3.61426 12.2354 1.27051 16.418l34.9307 34.9307c2.19824 2.18066 5.17285 3.39551 8.26758 3.37793z" />
    <glyph glyph-name="uniF20A" unicode="&#xf20a;" 
d="M212.364 64.3418l20.3633 -90.1816c1.44922 -4.46582 0.0732422 -9.36523 -3.48926 -12.4229c-4.87695 -4.18555 -12.2246 -3.625 -16.4092 1.25195c-41.1934 24.7861 -198.4 174.312 -211.782 292.422c-0.621094 5.21484 -0.970703 10.458 -1.04688 15.709
c0 72.1709 58.5059 130.676 130.676 130.677c36.0547 -0.790039 70.6064 -14.5938 97.2803 -38.8652c2.94238 -2.14844 4.70703 -5.55078 4.77051 -9.19238c0.142578 -1.04297 0.142578 -2.10059 0 -3.14258l-31.6504 -108.8l60.0439 -69.1201zM24.2041 257.855
c10.7051 -92.2773 123.694 -213.062 178.037 -258.444l-16.0586 64.9307l46.5449 104.728l-58.1816 69.8174l33.1641 110.896c-21.5771 18.209 -48.8027 28.3672 -77.0332 28.7422c-59.2451 -0.192383 -107.171 -48.2744 -107.171 -107.521
c0 -4.07227 0.698242 -9.4248 0.698242 -11.6357v-1.5127zM381.324 425.069c72.1699 0 130.676 -58.5059 130.677 -130.676c-0.235352 -5.2207 -0.740234 -10.4248 -1.5127 -15.5928c-13.3818 -117.877 -170.589 -267.985 -211.782 -292.422
c-1.49414 -1.45703 -3.35254 -2.48633 -5.37988 -2.97754c-6.24512 -1.5166 -12.5371 2.31738 -14.0527 8.5625l-23.2734 95.6514l46.5459 104.727l-58.1816 69.8184l35.4912 118.341c0.726562 2.375 2.19434 4.45508 4.18848 5.93457
c26.7129 24.1777 61.2578 37.8965 97.2803 38.6338zM488.029 282.64c0.697266 2.79297 0.697266 7.56445 0.696289 11.7529c-0.0644531 59.291 -48.1123 107.341 -107.403 107.404c-29.7861 -0.441406 -58.3672 -11.833 -80.291 -32l-30.1387 -104.727l60.0439 -69.1201
l-48.7559 -108.335l16.5244 -74.0068c47.709 36.0713 177.688 168.378 189.324 267.636v1.39551z" />
    <glyph glyph-name="uniF163" unicode="&#xf163;" 
d="M256 448c141.385 0 256 -114.615 256 -256s-114.615 -256 -256 -256s-256 114.615 -256 256s114.615 256 256 256zM256 -40.7266c128.532 0 232.727 104.194 232.727 232.727s-104.194 232.727 -232.727 232.727s-232.727 -104.194 -232.727 -232.727
s104.194 -232.727 232.727 -232.727zM256 331.636c77.1191 0 139.636 -62.5166 139.636 -139.636s-62.5166 -139.636 -139.636 -139.636s-139.636 62.5166 -139.636 139.636s62.5166 139.636 139.636 139.636zM256 308.364
c-11.835 0.0400391 -23.6074 -1.72656 -34.9092 -5.2373c17.7529 -17.877 33.3721 -37.7529 46.5449 -59.2285c21.9512 10.375 42.5781 23.3447 61.4404 38.6328c-20.6914 16.709 -46.4814 25.8262 -73.0762 25.833zM197.818 292.887
c-28.8789 -16.6729 -49.2178 -44.9346 -55.8545 -77.6143c35.2383 0.392578 70.1338 6.9707 103.098 19.4326c-13.2871 21.2686 -29.1553 40.8105 -47.2432 58.1816zM139.636 192c0.0185547 -29.6299 11.3369 -58.1377 31.6514 -79.709
c23.0127 35.8613 56.959 63.3613 96.8145 78.4287c-3.25781 8.0293 -6.98145 15.709 -10.8213 23.2734c-37.5146 -14.5566 -77.4062 -22.0127 -117.645 -21.9932zM256 75.6357c11.835 -0.0400391 23.6074 1.72656 34.9102 5.23633
c-0.602539 29.8604 -5.62109 59.4658 -14.8955 87.8545c-36.1436 -13.6055 -66.7559 -38.8145 -87.04 -71.6797c19.5977 -13.8828 43.0098 -21.3623 67.0254 -21.4111zM313.484 90.8799c31.5469 17.9795 52.8926 49.6543 57.7158 85.6436
c-11.0908 2.40527 -22.3965 3.69238 -33.7451 3.83984c-13.1621 -0.0341797 -26.2783 -1.55664 -39.0977 -4.53809c8.79492 -27.5176 13.8818 -56.083 15.127 -84.9453zM337.455 203.636c11.7178 -0.09375 23.4043 -1.26172 34.9092 -3.48926
c-1.65625 24.0879 -10.7666 47.0645 -26.0654 65.7441c-20.5146 -16.917 -43.0234 -31.2588 -67.0244 -42.7061c4.26562 -8.22266 8.14453 -16.6787 11.6357 -25.3662c15.2285 3.77734 30.8535 5.73145 46.5449 5.81738z" />
    <glyph glyph-name="uniF1D3" unicode="&#xf1d3;" 
d="M256 448c141.385 0 256 -114.615 256 -256s-114.615 -256 -256 -256s-256 114.615 -256 256s114.615 256 256 256zM288.778 -38.6445c127.378 17.1807 216.711 134.368 199.529 261.747c-17.1807 127.38 -134.369 216.712 -261.748 199.53
c-116.047 -131.858 -116.047 -329.408 0 -461.266c9.75977 -1.31836 19.5928 -2.01758 29.4404 -2.09473c10.9609 -0.078125 21.915 0.617188 32.7783 2.08301z" />
    <glyph glyph-name="uniF1C6" unicode="&#xf1c6;" 
d="M349.127 42.665c0.0634766 -0.697266 0.0634766 -1.39844 0 -2.0957c-0.0322266 -2.79004 -1.06445 -5.47461 -2.91016 -7.56641l-81.4863 -93.127c-0.285156 -0.319336 -0.587891 -0.623047 -0.907227 -0.908203c-4.79004 -4.28809 -12.1484 -3.88184 -16.4375 0.908203
l-81.4863 93.127c-1.88672 2.0752 -2.96289 4.7627 -3.02637 7.56641c-0.0634766 0.697266 -0.0634766 1.39844 0 2.0957l58.2041 291.021v0.698242l-52.2666 45.5156c-3.59082 2.0166 -5.84766 5.7793 -5.9375 9.89551c0 32.1289 41.6738 58.2041 93.127 58.2041
s93.127 -26.0752 93.127 -58.2051c0.0732422 -4.04004 -1.9541 -7.8291 -5.35547 -10.0117l-52.8486 -45.3994v-0.698242l18.8584 -95.2217h16.0635c6.42871 0 11.6406 -5.21094 11.6406 -11.6406c0 -6.42871 -5.21094 -11.6406 -11.6406 -11.6406h-11.6406z
M186.854 394.335l69.1465 -59.3672l69.1465 59.3672c-4.42383 17.1123 -34.2236 30.3828 -69.1465 30.3828s-64.7227 -13.2705 -69.1465 -30.3828zM256 -34.8623l69.1475 78.8076l-34.2236 171.237h-34.9229c-6.42871 0 -11.6406 5.21094 -11.6406 11.6406
c0 6.42871 5.21094 11.6406 11.6406 11.6406h30.0332l-15.7148 78.6924l-5.7041 -4.88867c-0.494141 -0.520508 -1.04004 -0.988281 -1.62988 -1.39648l-1.16406 -1.04785c-3.52246 -2.35352 -8.11719 -2.35352 -11.6406 0l-1.16406 1.04785
c-0.589844 0.408203 -1.13574 0.875977 -1.62988 1.39648l-5.7041 4.88867l-54.5967 -273.211z" />
    <glyph glyph-name="uniF1EC" unicode="&#xf1ec;" 
d="M395.636 238.545c25.707 0 46.5459 -20.8389 46.5459 -46.5449v-209.454c0 -25.7061 -20.8389 -46.5449 -46.5449 -46.5449h-279.272c-25.7061 0 -46.5449 20.8389 -46.5449 46.5449v209.455c0 25.7061 20.8389 46.5449 46.5449 46.5449v69.8184
c0 77.1191 62.5166 139.636 139.636 139.636s139.636 -62.5166 139.636 -139.637v-69.8184zM139.636 308.364v-69.8184h232.729v69.8184c0 64.2656 -52.0986 116.363 -116.364 116.363s-116.364 -52.0977 -116.364 -116.363zM418.909 -17.4551h0.000976562v209.455
c0 12.8525 -10.4199 23.2734 -23.2734 23.2734h-279.272c-12.8535 0 -23.2734 -10.4209 -23.2734 -23.2734v-209.455c0 -12.8525 10.4199 -23.2725 23.2734 -23.2725h279.271c12.8535 0 23.2734 10.4199 23.2734 23.2725zM286.294 133.672
c19.1963 -17.0977 20.8984 -46.5186 3.80078 -65.7148c0.542969 -3.52441 0.542969 -7.11035 0 -10.6338c-2.93652 -19.0557 -20.7637 -32.1211 -39.8184 -29.1855c-19.0557 2.9375 -32.1211 20.7646 -29.1855 39.8193c-7.62305 8.56152 -11.8184 19.6357 -11.7832 31.0996
c0.0810547 25.7061 20.9863 46.4795 46.6924 46.3984c11.1855 -0.160156 21.9404 -4.34277 30.2939 -11.7832zM276.155 87.4131c6.42578 11.1309 2.61328 25.3643 -8.51758 31.791s-25.3633 2.61328 -31.791 -8.51855c-6.42676 -11.1309 -2.6123 -25.3633 8.51855 -31.791
v-14.8945c0 -6.42578 5.20996 -11.6357 11.6357 -11.6357s11.6357 5.20898 11.6357 11.6357v14.8945c3.53711 2.04199 6.47559 4.98047 8.51855 8.51855z" />
    <glyph glyph-name="uniF203" unicode="&#xf203;" 
d="M186.182 331.632c-3.12598 -0.0175781 -6.12793 1.22168 -8.33008 3.44238c-4.52441 4.5625 -4.49414 11.9297 0.0683594 16.4561l69.8184 69.8174c4.53809 4.5127 11.8682 4.5127 16.4062 0l69.8184 -69.8174c0.455078 -0.389648 0.878906 -0.814453 1.26953 -1.26953
c4.18066 -4.88086 3.61133 -12.2266 -1.26953 -16.4072s-12.2266 -3.61133 -16.4072 1.26953l-49.9199 49.9199v-227.956c0 -6.42578 -5.20996 -11.6357 -11.6357 -11.6357s-11.6357 5.20898 -11.6357 11.6357v227.956l-49.9199 -50.0361
c-2.19629 -2.17871 -5.16895 -3.39258 -8.2627 -3.375zM510.72 138.934c0.813477 -1.58691 1.25098 -3.33789 1.2793 -5.11914v-162.909c0 -6.42676 -5.20898 -11.6367 -11.6357 -11.6367h-488.728c-6.42578 0 -11.6357 5.20898 -11.6357 11.6367v162.909
c0.0654297 1.79102 0.541992 3.54395 1.39648 5.11914l116.363 232.728c1.91992 3.9209 5.87402 6.43652 10.2402 6.51562h11.6367c6.42676 0 11.6367 -5.20996 11.6367 -11.6357s-5.20898 -11.6357 -11.6367 -11.6357h-4.42188l-104.728 -209.455h144.06
c6.42578 0 11.6357 -5.20898 11.6357 -11.6357c0 -38.5596 31.2598 -69.8184 69.8184 -69.8184s69.8184 31.2578 69.8184 69.8184c0 6.42578 5.20898 11.6357 11.6357 11.6357h144.058l-104.727 209.455h-4.42188c-6.42578 0 -11.6367 5.20996 -11.6367 11.6357
s5.20898 11.6357 11.6367 11.6357h11.6357c4.40723 -0.0351562 8.41699 -2.55762 10.3564 -6.51562zM488.727 -17.459h0.000976562v139.636h-140.45c-5.54883 -41.6631 -38.3262 -74.4404 -79.9893 -79.9883c-50.9629 -6.78613 -97.7783 29.0254 -104.564 79.9883h-140.45
v-139.636h465.453z" />
    <glyph glyph-name="uniF25D" unicode="&#xf25d;" 
d="M465.455 448c25.7061 0 46.5449 -20.8389 46.5439 -46.5449v-349.093c0 -25.7061 -20.8389 -46.5449 -46.5449 -46.5449h-162.909v-46.5449h34.9092c6.42578 0 11.6357 -5.21094 11.6357 -11.6367s-5.20898 -11.6357 -11.6357 -11.6357h-162.909
c-6.42578 0 -11.6357 5.21191 -11.6357 11.6377c0 6.42676 5.20898 11.6367 11.6357 11.6367h34.9092v46.5449h-162.909c-25.7061 0 -46.5449 20.8389 -46.5449 46.5449v349.091c0 25.7061 20.8389 46.5449 46.5449 46.5449h418.91zM279.273 -40.7266v46.5449h-46.5459
v-46.5449h46.5459zM488.727 52.3643v23.2725h-465.454v-23.2725c0 -12.8535 10.4199 -23.2734 23.2725 -23.2734h418.909c12.8525 0 23.2725 10.4199 23.2725 23.2734zM488.727 98.9092h0.000976562v302.546c0 12.8525 -10.4199 23.2725 -23.2725 23.2725h-418.909
c-12.8525 0 -23.2725 -10.4199 -23.2725 -23.2725v-302.546h465.453zM345.716 270.08v0c4.51172 -4.53906 4.51172 -11.8691 -0.000976562 -16.4062l-46.5449 -46.5449c-0.388672 -0.455078 -0.813477 -0.878906 -1.26855 -1.26855
c-4.88184 -4.18164 -12.2275 -3.6123 -16.4072 1.26855c-4.18066 4.88086 -3.6123 12.2275 1.26855 16.4072l26.6475 26.6465h-134.865c-6.42578 0 -11.6357 5.20996 -11.6357 11.6367c0 6.42578 5.20898 11.6357 11.6357 11.6357h134.866l-26.6475 26.6465
c-4.5625 4.53027 -4.58789 11.9023 -0.0576172 16.4658c4.53027 4.5625 11.9023 4.58887 16.4648 0.0576172z" />
    <glyph glyph-name="uniF10F" unicode="&#xf10f;" 
d="M279.345 87.8799c-0.0126953 -3.11035 -1.27051 -6.08594 -3.49219 -8.26367l-49.9297 -49.9297h41.7832c3.03027 -0.0117188 5.93555 -1.20508 8.09863 -3.32617c4.58984 -4.49902 4.66406 -11.8691 0.164062 -16.459l-69.832 -69.832
c-0.388672 -0.455078 -0.813477 -0.878906 -1.26855 -1.26855c-4.88184 -4.18164 -12.2295 -3.61328 -16.4102 1.26855c-4.18262 4.88281 -3.61328 12.2295 1.26855 16.4111l49.9307 49.9297h-41.7842c-3.12695 -0.0185547 -6.12988 1.22168 -8.33105 3.44238
c-4.52637 4.56445 -4.49609 11.9326 0.0673828 16.459l69.832 69.832c2.20312 2.2207 5.20508 3.46094 8.33203 3.44336c6.42773 -0.0380859 11.6084 -5.2793 11.5713 -11.707zM442.286 329.267c40.8828 -10.6855 69.4443 -47.5615 69.5664 -89.8193
c0.146484 -51.4219 -41.4209 -93.2275 -92.8428 -93.374h-325.883c-43.0127 0.0703125 -80.3799 29.5947 -90.3965 71.4238c-11.9766 50.0088 18.8545 100.258 68.8643 112.234c6.06543 39.1025 28.4365 73.7979 61.5498 95.4619
c64.5469 42.2295 151.107 24.1367 193.337 -40.4111c12.709 11.1152 29.0146 17.25 45.8984 17.2676c38.5674 0.0410156 69.8652 -31.1904 69.9062 -69.7578v-3.02539zM419.009 169.351c33.4053 -0.994141 62.833 21.8203 70.1953 54.4209
c8.49512 37.6191 -15.1152 75.0029 -52.7363 83.4971c-10.5498 2.71875 -17.8027 12.3896 -17.458 23.2783v1.74512c-0.0390625 11.1992 -4.11426 22.0107 -11.4785 30.4492c-16.9053 19.373 -46.3154 21.3721 -65.6875 4.4668
c-4.2793 -3.54883 -9.68848 -5.44727 -15.2471 -5.35449h-3.25781c-10.9072 5.04004 -20.4766 12.5762 -27.9326 21.998c-21.6475 33.2861 -46.4385 41.5498 -85.8936 41.5498c-57.5381 -0.115234 -106.358 -42.2559 -114.874 -99.1621
c-1.41309 -9.41602 -8.4209 -17.0225 -17.6904 -19.2031c-31.1807 -7.58301 -53.1807 -35.4404 -53.3291 -67.5293c-0.179688 -38.5674 30.9395 -69.9775 69.5068 -70.1562h325.883z" />
    <glyph glyph-name="uniF266" unicode="&#xf266;" 
d="M174.575 333.142c-5.56152 -3.2207 -12.6807 -1.32422 -15.9023 4.23535c-3.2207 5.56152 -1.3252 12.6807 4.23633 15.9023c0.0234375 0.0126953 0.046875 0.0263672 0.0693359 0.0400391c5.58301 3.18359 12.6895 1.2373 15.8721 -4.3457
c3.16699 -5.55566 1.25879 -12.626 -4.27539 -15.832zM110.731 289.356c5.56055 -3.22168 7.45801 -10.3418 4.23438 -15.9014c-3.20605 -5.53418 -10.2754 -7.44434 -15.832 -4.27637c-5.58203 3.18359 -7.52734 10.29 -4.34473 15.8721s10.2891 7.52832 15.8721 4.3457
c0.0234375 -0.0136719 0.046875 -0.0273438 0.0703125 -0.0400391zM99.0947 114.891c5.58301 3.18359 12.6895 1.2373 15.8721 -4.3457c3.16699 -5.55566 1.25781 -12.626 -4.27539 -15.832c-5.56152 -3.2207 -12.6816 -1.3252 -15.9023 4.23633
c-3.2207 5.56055 -1.3252 12.6807 4.23633 15.9014c0.0234375 0.0136719 0.046875 0.0273438 0.0693359 0.0400391zM337.385 333.073c-5.56055 3.2207 -7.45703 10.3408 -4.23535 15.9004c3.20605 5.53418 10.2754 7.44434 15.832 4.27637
c5.58301 -3.18262 7.52832 -10.2891 4.3457 -15.8721c-3.18359 -5.58203 -10.2891 -7.52832 -15.8721 -4.34473c-0.0244141 0.0126953 -0.046875 0.0263672 -0.0703125 0.0400391zM174.615 50.8105c5.56055 -3.22168 7.45703 -10.3408 4.23438 -15.9004
c-3.20605 -5.53418 -10.2754 -7.44434 -15.832 -4.27637c-5.58301 3.18359 -7.52734 10.2891 -4.34473 15.8721c3.18359 5.58203 10.2891 7.52832 15.8721 4.34473c0.0244141 -0.0126953 0.046875 -0.0263672 0.0703125 -0.0400391zM69.8193 192
c0 6.42676 5.20898 11.6357 11.6357 11.6357s11.6357 -5.20898 11.6357 -11.6357s-5.20898 -11.6357 -11.6357 -11.6357s-11.6357 5.20898 -11.6357 11.6357zM337.524 50.8906c5.58301 3.18359 12.6885 1.2373 15.8721 -4.3457
c3.16699 -5.55566 1.25781 -12.626 -4.27637 -15.832c-5.56152 -3.2207 -12.6807 -1.3252 -15.9023 4.23633c-3.2207 5.56055 -1.3252 12.6807 4.23633 15.9014c0.0234375 0.0136719 0.046875 0.0273438 0.0703125 0.0400391zM418.909 192
c0 6.42676 5.20898 11.6357 11.6357 11.6357s11.6357 -5.20898 11.6357 -11.6357s-5.20898 -11.6357 -11.6357 -11.6357s-11.6357 5.20898 -11.6357 11.6357zM256 448c141.385 0 256 -114.615 256 -256s-114.615 -256 -256 -256s-256 114.615 -256 256s114.615 256 256 256z
M256 -40.7266c128.532 0 232.727 104.194 232.727 232.727s-104.194 232.727 -232.727 232.727s-232.727 -104.194 -232.727 -232.727s104.194 -232.727 232.727 -232.727zM413.044 114.811c5.56152 -3.22168 7.45703 -10.3408 4.23535 -15.9004
c-3.20605 -5.53418 -10.2764 -7.44434 -15.832 -4.27637c-5.58203 3.18359 -7.52832 10.2891 -4.3457 15.8721c3.18359 5.58203 10.2891 7.52832 15.8721 4.34473c0.0244141 -0.0126953 0.0478516 -0.0263672 0.0703125 -0.0400391zM244.364 17.4551
c0 6.42676 5.20898 11.6357 11.6357 11.6357s11.6357 -5.20898 11.6357 -11.6357s-5.20898 -11.6357 -11.6357 -11.6357s-11.6357 5.20898 -11.6357 11.6357zM360.727 203.636c6.42773 0 11.6377 -5.21094 11.6377 -11.6367s-5.20898 -11.6357 -11.6367 -11.6357h-59.8105
c-4.19629 -16.5605 -17.126 -29.4902 -33.6855 -33.6865c-24.9199 -6.31348 -50.2383 8.76758 -56.5537 33.6865c-6.31348 24.9189 8.76758 50.2373 33.6865 56.5527v129.629c0 6.42578 5.20996 11.6357 11.6357 11.6357s11.6357 -5.20898 11.6357 -11.6357v-129.629
c16.2979 -4.25391 29.0264 -16.9824 33.2803 -33.2803h59.8105zM256 168.727c12.8525 0 23.2734 10.4209 23.2734 23.2734s-10.4209 23.2734 -23.2734 23.2734s-23.2734 -10.4209 -23.2734 -23.2734c0 -12.8535 10.4209 -23.2734 23.2734 -23.2734zM413.004 269.259
c-5.56055 -3.22168 -12.6797 -1.3252 -15.9023 4.23535c-3.2207 5.56055 -1.32422 12.6807 4.23633 15.9023c0.0244141 0.0126953 0.046875 0.0263672 0.0703125 0.0390625c5.58301 3.18457 12.6885 1.23828 15.8721 -4.34473
c3.16699 -5.55566 1.25781 -12.626 -4.27637 -15.832z" />
    <glyph glyph-name="uniF167" unicode="&#xf167;" 
d="M511.916 296.71c0.112305 -0.926758 0.112305 -1.86523 0 -2.79297l-46.5391 -209.42c-0.961914 -3.55664 -3.55078 -6.44922 -6.98145 -7.79492c4.52832 -7.30469 6.94434 -15.7217 6.98145 -24.3164c0 -25.7012 -20.8359 -46.5371 -46.5381 -46.5371
c-25.7012 0 -46.5371 20.8359 -46.5371 46.5371c0.0498047 8.18457 2.25684 16.2109 6.39941 23.2695h-129.144c4.14258 -7.05859 6.34961 -15.0859 6.39941 -23.2695c0 -25.7012 -20.8359 -46.5371 -46.5371 -46.5371c-25.7021 0 -46.5381 20.8359 -46.5381 46.5371
c-0.0820312 8.51074 2.17188 16.8818 6.51562 24.2002c-3.14551 1.36426 -5.5293 4.0459 -6.51562 7.33008l-72.1338 270.966h-79.1143c-6.4248 0 -11.6338 5.20898 -11.6338 11.6348s5.20898 11.6348 11.6338 11.6338h87.957
c5.13867 0.0146484 9.67969 -3.34277 11.1689 -8.26074l16.5215 -61.5459h373.001c6.4248 0 11.6338 -5.20801 11.6338 -11.6338zM133.447 285.076l12.4492 -46.5381h69.8057l-5.11914 46.5381h-77.1357zM164.628 168.73h58.9863l-5.23535 46.5381h-66.2002zM170.91 145.462
l12.5654 -46.5381h47.8174l-5.11914 46.5381h-55.2637zM209.421 29.1182c12.8506 0 23.2676 10.417 23.2686 23.2686c0 12.8516 -10.418 23.2695 -23.2686 23.2695c-12.8516 0 -23.2695 -10.418 -23.2695 -23.2695c0 -12.8506 10.418 -23.2686 23.2695 -23.2686z
M302.495 98.9238v46.5381h-52.9365l5.11914 -46.5381h47.8174zM302.495 168.73h0.000976562v46.5381h-60.7314l5.23438 -46.5381h55.4961zM302.495 238.537v46.5381h-68.4102l5.11914 -46.5381h63.291zM373.583 98.9238l5.11816 46.5381h-52.9365v-46.5381h47.8184z
M381.377 168.73l5.12012 46.5381h-60.7324v-46.5381h55.6123zM389.172 238.537l5.00391 46.5381h-68.4111v-46.5381h63.4072zM418.84 29.1182c12.8516 0 23.2695 10.417 23.2695 23.2686s-10.418 23.2695 -23.2695 23.2695c-12.8506 0 -23.2686 -10.418 -23.2686 -23.2695
c0 -12.8506 10.418 -23.2686 23.2686 -23.2686zM444.437 98.9238l10.3545 46.5381h-52.7041l-5.11914 -46.5381h47.4688zM460.026 168.73l10.3545 46.5381h-60.3828l-5.23535 -46.5381h55.2637zM475.384 238.537l10.3545 46.5381h-68.1777l-5.11914 -46.5381h62.9424z" />
    <glyph glyph-name="uniF100" unicode="&#xf100;" 
d="M325.788 238.047c6.4043 0 11.5947 -5.19043 11.5947 -11.5947c0 -6.40332 -5.19043 -11.5947 -11.5947 -11.5947h-208.712c-6.40332 0 -11.5947 5.19043 -11.5947 11.5947c0 6.40332 5.19043 11.5947 11.5947 11.5947h208.712zM509.212 -44.8623
c4.16504 -4.86426 3.59961 -12.1836 -1.26465 -16.3486c-4.86328 -4.16602 -12.1836 -3.59961 -16.3486 1.26465l-122.908 122.907c-84.0156 -75.6475 -211.589 -75.6475 -295.604 0c-90.6582 81.6279 -97.9795 221.294 -16.3496 311.952
c81.6289 90.6582 221.294 97.9785 311.952 16.3496c90.6582 -81.6279 97.9775 -221.294 16.3496 -311.952l122.908 -122.908c0.453125 -0.387695 0.875977 -0.811523 1.26465 -1.26465zM221.433 29.3359c108.864 0 197.116 88.252 197.116 197.116
s-88.252 197.116 -197.116 197.116s-197.116 -88.252 -197.116 -197.116s88.252 -197.116 197.116 -197.116z" />
    <glyph glyph-name="uniF1B3" unicode="&#xf1b3;" 
d="M93.0908 226.909c0 6.42578 5.20996 11.6357 11.6357 11.6357c6.42676 0 11.6367 -5.20996 11.6367 -11.6357c0 -6.42676 -5.20996 -11.6357 -11.6367 -11.6357c-6.42578 0 -11.6357 5.20898 -11.6357 11.6357zM302.546 87.2734
c0 6.42578 5.20996 11.6357 11.6357 11.6357c6.42676 0 11.6367 -5.20996 11.6367 -11.6357c0 -6.42676 -5.20996 -11.6367 -11.6367 -11.6367c-6.42578 0 -11.6357 5.20996 -11.6357 11.6367zM488.727 354.909c12.8535 0 23.2734 -10.4189 23.2734 -23.2734v-209.454
c0 -12.8525 -10.4199 -23.2725 -23.2734 -23.2725h-34.9082c-6.42676 0 -11.6367 5.20898 -11.6367 11.6357c0 6.42578 5.20898 11.6357 11.6367 11.6357h34.9082v209.455h-372.363v-11.6357c0 -6.42578 -5.20898 -11.6357 -11.6367 -11.6357
c-6.42578 0 -11.6357 5.20898 -11.6357 11.6357v11.6357c0 12.8535 10.4199 23.2734 23.2734 23.2734h372.362zM395.636 285.091c12.8545 0 23.2734 -10.4199 23.2744 -23.2725v-209.455c0 -12.8535 -10.4199 -23.2734 -23.2734 -23.2734h-372.363
c-12.8535 0 -23.2734 10.4199 -23.2734 23.2734v209.455c0 12.8525 10.4199 23.2725 23.2734 23.2725h372.362zM34.9092 261.818c-6.42676 0 -11.6357 -5.20996 -11.6357 -11.6367c0 -6.42578 5.20898 -11.6357 11.6357 -11.6357c6.42578 0 11.6357 5.20996 11.6357 11.6357
c0 6.42676 -5.20898 11.6367 -11.6357 11.6367zM34.9092 52.3643c6.42676 0 11.6357 5.20996 11.6357 11.6357s-5.20898 11.6357 -11.6357 11.6357c-6.42578 0 -11.6357 -5.20996 -11.6357 -11.6357s5.20898 -11.6357 11.6357 -11.6357zM384 52.3643
c6.42676 0 11.6357 5.20996 11.6357 11.6357s-5.20996 11.6357 -11.6357 11.6357s-11.6357 -5.20996 -11.6357 -11.6357s5.20898 -11.6357 11.6357 -11.6357zM395.636 96.8154h0.000976562v120.553c-7.4375 -2.59082 -15.5332 -2.59082 -22.9707 0
c-18.2061 6.34277 -27.8232 26.2451 -21.4805 44.4512h-283.462c1.31055 -3.70703 1.98535 -7.6084 1.99609 -11.5391c0.0546875 -19.2803 -15.5303 -34.9531 -34.8105 -35.0078c-3.96875 0.03125 -7.9043 0.739258 -11.6357 2.09473v-120.552
c7.4375 2.59082 15.5322 2.59082 22.9707 0c18.2061 -6.34375 27.8232 -26.2451 21.4795 -44.4512h283.461c-2.59082 7.4375 -2.59082 15.5332 0 22.9707c6.34375 18.2061 26.2451 27.8232 44.4512 21.4805zM384 238.545c6.42676 0 11.6357 5.20996 11.6357 11.6357
c0 6.42676 -5.20996 11.6367 -11.6357 11.6367s-11.6357 -5.20996 -11.6357 -11.6367c0 -6.42578 5.20898 -11.6357 11.6357 -11.6357zM209.455 238.545c44.9863 0 81.4541 -36.4678 81.4551 -81.4551c0 -44.9873 -36.4688 -81.4551 -81.4551 -81.4551
c-44.9873 0 -81.4551 36.4688 -81.4551 81.4551c0 44.9873 36.4688 81.4551 81.4551 81.4551zM241.92 124.742c1.7334 4.08008 2.56738 8.48438 2.44336 12.916c0.0751953 4.03906 -0.845703 8.03516 -2.67676 11.6357c-1.75391 3.19336 -4.17383 5.9707 -7.09766 8.14551
c-3.09766 2.26465 -6.50781 4.06738 -10.124 5.35254c-3.1416 1.16406 -5.81836 2.21094 -8.84375 3.1416v28.1602c2.85156 -0.046875 5.57129 -1.21777 7.56348 -3.25781c2.38184 -2.87598 3.66016 -6.50586 3.60742 -10.2402h15.2441
c0.133789 4.00586 -0.663086 7.98926 -2.32715 11.6367c-1.47559 3.10742 -3.62207 5.84961 -6.28418 8.02832c-2.76074 2.18555 -5.92383 3.80664 -9.30859 4.77148c-2.76074 0.823242 -5.61621 1.29297 -8.49512 1.39551v8.84473h-11.6357v-8.84473
c-2.92578 -0.117188 -5.82129 -0.625977 -8.61133 -1.5127c-3.47949 -1.05566 -6.74707 -2.70898 -9.6582 -4.88672c-2.83105 -2.12793 -5.13965 -4.87402 -6.74902 -8.0293c-1.77832 -3.6123 -2.62012 -7.61426 -2.44336 -11.6357
c-0.313477 -7.8584 3.36328 -15.3438 9.77441 -19.8984c2.99902 -2.19043 6.28906 -3.9541 9.77539 -5.23633c2.90918 -1.16309 5.23633 -2.09375 7.91309 -2.9082v-32.1143c-3.99512 0.0576172 -7.77148 1.83984 -10.3564 4.88672
c-2.86523 3.97852 -4.22461 8.84375 -3.83984 13.7314h-15.2441c-0.201172 -4.44238 0.511719 -8.87793 2.09473 -13.0332c1.46973 -3.63672 3.73535 -6.89844 6.63379 -9.54199c3.00391 -2.70117 6.52734 -4.75977 10.3555 -6.05078
c3.33203 -1.19824 6.82031 -1.9043 10.3564 -2.0957v-9.19238h11.6357v9.19238c3.25098 0.259766 6.45605 0.923828 9.54199 1.97852c3.66406 1.19922 7.0625 3.09473 10.0068 5.58496c2.90137 2.48145 5.20801 5.58301 6.74902 9.07617zM191.767 181.76
c-0.452148 3.74219 0.935547 7.47168 3.72461 10.0078c2.41699 1.71289 5.2998 2.64648 8.26172 2.67676v-25.9492l-2.55957 1.04688c-1.71484 0.599609 -3.32324 1.46387 -4.77148 2.55957c-1.36621 1.04785 -2.51172 2.35254 -3.375 3.84082
c-0.902344 1.63574 -1.34375 3.48535 -1.28027 5.35254v0.464844zM227.84 141.382c0.983398 -1.90332 1.46387 -4.02539 1.39746 -6.16699c0.412109 -4.40137 -1.32129 -8.73242 -4.65527 -11.6357c-2.58691 -2.04199 -5.68848 -3.33008 -8.95996 -3.72363v29.6729
l3.1416 -1.28027c1.86816 -0.678711 3.63086 -1.62012 5.23633 -2.79297c1.55762 -1.06738 2.86719 -2.45605 3.83984 -4.07324z" />
    <glyph glyph-name="uniF1F2" unicode="&#xf1f2;" 
d="M46.5449 308.364c-25.7061 0 -46.5449 20.8389 -46.5449 46.5449s20.8389 46.5459 46.5449 46.5449h418.909c25.7061 0 46.5449 -20.8389 46.5449 -46.5449s-20.8389 -46.5449 -46.5449 -46.5449h-418.909zM46.5449 378.182
c-12.8525 0 -23.2715 -10.4199 -23.2725 -23.2725c0 -12.8535 10.4199 -23.2734 23.2725 -23.2734h418.909c12.8525 0 23.2725 10.4199 23.2725 23.2734c0 12.8525 -10.4199 23.2725 -23.2725 23.2725h-418.909zM465.455 238.545
c25.7061 0 46.5449 -20.8389 46.5449 -46.5449s-20.8389 -46.5449 -46.5459 -46.5449h-418.909c-25.7061 0 -46.5449 20.8389 -46.5449 46.5449s20.8389 46.5449 46.5449 46.5449h418.91zM465.455 168.727c12.8525 0 23.2715 10.4209 23.2715 23.2734
s-10.4199 23.2734 -23.2725 23.2734h-418.909c-12.8525 0 -23.2725 -10.4209 -23.2725 -23.2734s10.4199 -23.2734 23.2725 -23.2734h418.91zM465.455 75.6357c25.7061 0 46.5449 -20.8389 46.5439 -46.5449c0 -25.7061 -20.8389 -46.5449 -46.5449 -46.5449h-418.909
c-25.7061 0 -46.5449 20.8389 -46.5449 46.5449s20.8389 46.5449 46.5449 46.5449h418.91zM465.455 5.81836c12.8525 0 23.2715 10.4199 23.2715 23.2725c0 12.8535 -10.4199 23.2734 -23.2725 23.2734h-418.909c-12.8525 0 -23.2725 -10.4199 -23.2725 -23.2734
c0 -12.8525 10.4199 -23.2725 23.2725 -23.2725h418.91z" />
    <glyph glyph-name="uniF121" unicode="&#xf121;" 
d="M256 448c141.385 0 256 -114.615 256 -256s-114.615 -256 -256 -256s-256 114.615 -256 256s114.615 256 256 256zM256 -40.7266c56.1465 -0.046875 110.398 20.2979 152.67 57.25c-17.9307 17.71 -38.3076 32.7578 -60.5088 44.6836
c-28.2773 13.3818 -44.335 27.8105 -50.502 45.498c-4.66992 15.1182 -2.90332 31.4922 4.88672 45.2646c4.07227 8.37793 8.0293 15.4766 11.6357 21.876c14.1973 24.5527 23.2734 39.5635 23.2734 99.6074s-24.0869 81.4551 -45.7314 81.4551
c-4.26074 0.0283203 -8.4873 -0.760742 -12.4502 -2.32715c-11.1514 -4.19727 -22.9951 -6.25 -34.9092 -6.05078c-25.7168 -0.931641 -58.1826 -1.39648 -58.1826 -69.8184c-1.52734 -37.1045 8.07715 -73.8203 27.5781 -105.425
c3.60742 -6.51562 6.98242 -12.6836 9.8916 -19.3164c16.291 -37.0039 2.67578 -68.4219 -37.4697 -86.1084c-30.0957 -11.4365 -57.7383 -28.4961 -81.4551 -50.2695c42.0371 -36.3086 95.7266 -56.2979 151.273 -56.3193zM425.658 33.0469
c84.4951 90.0752 83.915 230.465 -1.32129 319.839c-88.7061 93.0146 -236.019 96.5059 -329.033 7.79883c-93.0137 -88.707 -96.5049 -236.021 -7.79883 -329.035c25.6836 23.9248 55.7002 42.7246 88.4365 55.3887c28.625 12.6826 37.2354 30.2539 25.5996 55.5049
c-2.44434 5.81934 -5.58496 11.4043 -8.95996 17.4551c-21.1133 35.0293 -31.4336 75.5029 -29.6729 116.364c0 91.6943 55.2725 93.0908 81.4551 93.0908c9.21289 -0.186523 18.377 1.39355 26.9961 4.65527c6.58203 2.66504 13.6113 4.04688 20.7129 4.07227
c11.4033 0 68.6543 -5.46875 68.6543 -104.727c0 -65.9785 -11.6357 -84.5967 -25.5996 -110.662c-3.95605 -6.05078 -7.67969 -12.6836 -11.6357 -20.7129c-4.94531 -8.21582 -6.29102 -18.1055 -3.72461 -27.3447c3.60742 -11.1709 16.5234 -21.7607 38.5166 -32.1162
c24.7588 -13.1445 47.459 -29.8447 67.375 -49.5713z" />
    <glyph glyph-name="uniF252" unicode="&#xf252;" 
d="M430.545 354.909c-6.42578 0 -11.6357 5.20996 -11.6357 11.6357v23.2734c0 6.42578 5.20996 11.6357 11.6357 11.6357s11.6357 -5.20898 11.6357 -11.6357v-11.6377c6.42676 0 11.6367 -5.20996 11.6367 -11.6357s-5.20898 -11.6357 -11.6367 -11.6357h-11.6357z
M430.545 285.091c-44.9863 0 -81.4541 36.4678 -81.4551 81.4541c0 44.9873 36.4678 81.4551 81.4551 81.4551s81.4551 -36.4678 81.4551 -81.4541c0 -44.9873 -36.4688 -81.4551 -81.4551 -81.4551zM430.545 424.727c-32.1318 0 -58.1816 -26.0488 -58.1816 -58.1816
s26.0488 -58.1816 58.1816 -58.1816s58.1816 26.0488 58.1816 58.1816s-26.0488 58.1816 -58.1816 58.1816zM500.364 145.455c6.42578 0 11.6338 -5.21094 11.6338 -11.6367c0 -6.42676 -5.20898 -11.6367 -11.6357 -11.6367h-58.1826v-174.545
c0 -6.42578 -5.20996 -11.6357 -11.6357 -11.6357s-11.6357 5.20898 -11.6357 11.6357v174.545h-325.818v-174.545c0 -6.42578 -5.20996 -11.6357 -11.6357 -11.6357s-11.6357 5.20898 -11.6357 11.6357v174.545h-58.1826c-6.42578 0 -11.6357 5.20898 -11.6357 11.6367
c0 6.42676 5.20996 11.6367 11.6357 11.6367h69.8193c-6.42578 0 -11.6357 5.20996 -11.6357 11.6357s5.20898 11.6357 11.6357 11.6357h11.6357v69.8184c0 12.8535 10.4199 23.2734 23.2734 23.2734h116.362c12.8535 0 23.2734 -10.4199 23.2734 -23.2734v-69.8184h11.6357
c6.42578 0 11.6367 -5.20996 11.6367 -11.6357s-5.20898 -11.6357 -11.6367 -11.6357h232.729zM232.727 168.727h0.000976562v69.8184h-116.363v-69.8184h116.362z" />
    <glyph glyph-name="uniF270" unicode="&#xf270;" 
d="M508.288 316.192c4.97754 -5.01855 4.94531 -13.123 -0.0751953 -18.1006l-243.2 -230.4c-4.99219 -4.96289 -13.0566 -4.96289 -18.0479 0l-243.201 230.4c-5.01855 5.01855 -5.01855 13.1572 0 18.1758c5.01953 5.01953 13.1572 5.01953 18.1768 0l234.112 -221.824
l234.113 221.823c2.41602 2.39648 5.68555 3.73242 9.08789 3.71191c3.39453 -0.0136719 6.64453 -1.37598 9.03418 -3.78613z" />
    <glyph glyph-name="uniF2AE" unicode="&#xf2ae;" 
d="M500.288 238.451h-34.8994v-209.39h11.6318c4.98926 -0.0537109 9.38867 -3.28223 10.9346 -8.02637l23.2666 -69.7959c0.421875 -1.15723 0.657227 -2.37402 0.697266 -3.60547c0 -6.4248 -5.20703 -11.6328 -11.6318 -11.6328h-488.575
c-6.42383 0 -11.6318 5.20703 -11.6318 11.6328c0.0400391 1.23145 0.275391 2.44824 0.697266 3.60547l23.2666 69.7969c1.5459 4.74414 5.94434 7.97266 10.9346 8.02637h11.6318v209.39h-34.8984c-6.42383 0 -11.6318 5.20801 -11.6318 11.6328v46.5303
c0.000976562 4.10645 2.16699 7.90918 5.7002 10.0039l244.287 139.593c3.51172 2.38379 8.12207 2.38379 11.6328 0l244.288 -139.594c3.62109 -2.03516 5.88281 -5.84961 5.93164 -10.0039v-46.5303c0 -6.42383 -5.20703 -11.6328 -11.6318 -11.6328zM256 422.83
l-200.433 -114.582h400.865zM468.646 5.7959h-425.293l-15.4717 -46.5303h456.236zM69.876 29.0615h46.5303v209.39h-46.5303v-209.39zM139.672 29.0615h46.5312v209.39h-46.5312v-209.39zM209.469 29.0615h93.0615v209.39h-93.0615v-209.39zM325.796 29.0615h46.5303
v209.39h-46.5303v-209.39zM395.593 29.0615h46.5303v209.39h-46.5303v-209.39zM23.3457 261.716h465.31v23.2666h-465.31v-23.2666z" />
    <glyph glyph-name="uniF29D" unicode="&#xf29d;" 
d="M395.673 168.519c6.42773 0 11.6387 -5.21094 11.6377 -11.6396c0 -6.42773 -5.20996 -11.6387 -11.6387 -11.6387c-25.7129 0 -46.5566 -20.8447 -46.5566 -46.5566c0 -6.42773 -5.20996 -11.6387 -11.6387 -11.6387c-6.42773 0 -11.6387 5.20996 -11.6387 11.6387
c0 38.5684 31.2656 69.835 69.835 69.835zM116.331 168.519c6.42773 0 11.6396 -5.21094 11.6387 -11.6396c0 -6.42773 -5.21094 -11.6387 -11.6396 -11.6387c-25.7119 0 -46.5557 -20.8447 -46.5557 -46.5566c0 -6.42773 -5.21191 -11.6387 -11.6396 -11.6387
c-6.42676 0 -11.6387 5.20996 -11.6387 11.6387c0 38.5684 31.2656 69.835 69.835 69.835zM509.562 122.583c13.0273 -62.9482 -27.4404 -124.54 -90.3887 -137.567c-62.9473 -13.0264 -124.537 27.4414 -137.565 90.3887h-51.2119
c-1.93066 -9.32812 -4.99902 -18.3848 -9.13672 -26.9648c-27.9189 -57.9014 -97.4912 -82.2061 -155.393 -54.2871s-82.207 97.4902 -54.2871 155.393l85.7803 205.199c10.0039 27.1689 35.7334 45.3467 64.6826 45.7002
c38.5664 0.470703 70.2119 -30.4111 70.6816 -68.9775h46.5566c-0.0449219 29.6738 18.6689 56.1348 46.6602 65.9814c36.3838 12.7998 76.2539 -6.31934 89.0527 -42.7031l85.4316 -205.199c4.1377 -8.58008 7.20605 -17.6348 9.13672 -26.9629zM116.331 5.56934
c51.4258 0 93.1143 41.6885 93.1143 93.1133c0 51.4258 -41.6885 93.1143 -93.1143 93.1143c-51.4248 0 -93.1133 -41.6885 -93.1133 -93.1143s41.6885 -93.1133 93.1133 -93.1133zM209.445 168.519v167.024c-1.75781 16.0645 -11.7197 30.0693 -26.3203 36.998
c-23.2295 11.0234 -50.998 1.12891 -62.0215 -22.1006l-62.9688 -151.311c50.9219 29.5234 115.87 16.3848 151.311 -30.6113zM279.28 98.6826v23.2783h-46.5566v-23.2783h46.5566zM279.28 145.24v162.948h-46.5566v-162.948h46.5566zM302.559 335.541v-167.023
c35.3838 47.1396 100.423 60.3877 151.426 30.8438l-62.9678 151.31c-6.95996 14.8096 -21.1846 24.8799 -37.4648 26.5205c-25.584 2.58008 -48.4131 -16.0674 -50.9932 -41.6504zM395.673 5.56934c51.4238 0 93.1133 41.6885 93.1133 93.1133
c0 51.4258 -41.6875 93.1143 -93.1133 93.1143s-93.1143 -41.6885 -93.1143 -93.1143s41.6885 -93.1133 93.1143 -93.1133z" />
    <glyph glyph-name="uniF1A3" unicode="&#xf1a3;" 
d="M510.099 268.397c9.76855 -34.7725 -18.7227 -75.2422 -71.0547 -110.246c-8.3252 -45.0781 -32.998 -85.4961 -69.2871 -113.505c-81.3506 -62.7891 -198.199 -47.7402 -260.987 33.6104c-57.2168 6.97754 -97.8037 27.9111 -106.874 60.3564
c-8.25684 28.8418 10.9316 62.2178 48.6104 93.0352c-2.20898 -11.5059 -3.4541 -23.1748 -3.72168 -34.8877c-5.93359 -6.04492 -11.1973 -12.7119 -15.7002 -19.8867c-6.35645 -9.18652 -8.70703 -20.5615 -6.51172 -31.5146
c5.11621 -18.8408 30.3525 -33.0283 67.2178 -40.5869c-14.3096 26.9365 -21.7783 56.9785 -21.7471 87.4795c0.103516 102.764 83.4951 185.987 186.259 185.883c102.764 -0.103516 185.985 -83.4941 185.881 -186.258v-2.67578
c15.4141 11.2041 28.6221 25.1611 38.959 41.168c6.35645 9.18652 8.70801 20.5615 6.5127 31.5156c-4.88477 15.583 -23.376 28.1436 -51.4023 36.167c-5.98047 10.0469 -12.7881 19.5771 -20.3516 28.4922c50.4717 -8.14062 85.8252 -28.1436 94.1982 -58.1465z
M256.113 29.0645c70.3662 0.0185547 132.757 45.2402 154.672 112.107c-39.208 -21.0713 -80.8926 -37.168 -124.086 -47.9131c-43.4492 -11.3564 -88.1348 -17.2939 -133.041 -17.6768h-11.6289c30.4668 -29.8506 71.4307 -46.5547 114.084 -46.5176zM417.646 172.105
c4.79004 39.1074 -4.76367 78.627 -26.8906 111.229c-50.4971 74.4004 -151.745 93.7783 -226.146 43.2812s-93.7773 -151.745 -43.2803 -226.146c10.4668 -0.930664 21.0488 -1.62891 32.6787 -1.62891c42.9824 0.408203 85.7529 6.11133 127.341 16.9795
c48.0439 11.6797 94.0117 30.6621 136.297 56.2852z" />
    <glyph glyph-name="uniF21D" unicode="&#xf21d;" 
d="M317.848 370.153c-3.46582 -0.551758 -6.92969 1.00098 -8.8252 3.9541c-2.64062 4.10938 -1.44922 9.58105 2.65918 12.2207c2.93945 2.1084 5.36523 4.85352 7.09863 8.0293c57.3994 -20.9131 88.8545 -82.6543 72.0283 -141.383
c-5.37207 2.54688 -9.89551 6.58594 -13.0322 11.6367c-5.23633 12.1016 -19.4336 18.2686 -25.251 33.8613c-9.54199 25.9492 3.1416 25.251 4.88672 41.3096c0.813477 7.56348 -4.88672 9.07617 -12.4512 6.05078c-17.5713 -7.09766 -23.6221 -4.30469 -27.1133 8.26172
c-3.49023 12.5674 0 16.0586 0 16.0586zM264.67 271.942c0.0371094 0 0.0712891 -0.000976562 0.108398 -0.000976562c0.0419922 0 0.0830078 0.000976562 0.125 0.000976562h-0.233398zM357.993 254.72c5.12012 3.14258 17.1055 -5.00391 14.5449 -13.499
s-11.0547 -3.72363 -15.2441 0c-0.749023 0.587891 -1.3916 1.30176 -1.89941 2.10742c-2.42773 3.86328 -1.26465 8.96387 2.59863 11.3916zM278.982 122.182c-89.9727 0 -162.909 72.9375 -162.909 162.909c0 89.9727 72.9355 162.909 162.909 162.909
c89.9727 0 162.908 -72.9365 162.908 -162.909c0 -89.9717 -72.9365 -162.909 -162.908 -162.909zM278.982 424.727c-77.1191 0 -139.637 -62.5166 -139.637 -139.636s62.5176 -139.636 139.637 -139.636c77.1182 0 139.636 62.5166 139.636 139.636
s-62.5176 139.636 -139.636 139.636zM424.671 162.909c6.42578 -0.0654297 11.583 -5.32617 11.5195 -11.752c-0.0400391 -3.24316 -1.43262 -6.32227 -3.84082 -8.49512c-36.8809 -39.6328 -87.6758 -63.4453 -141.73 -66.4443v-116.945h69.8174
c6.42676 0 11.6367 -5.21094 11.6367 -11.6367s-5.20898 -11.6357 -11.6367 -11.6357h-162.908c-6.42773 0 -11.6367 5.21094 -11.6367 11.6367c0 6.42676 5.20898 11.6367 11.6367 11.6367h69.8174v116.944c-53.7354 3.14062 -104.201 26.8486 -140.924 66.2041
c-78.9189 84.5781 -74.3301 217.118 10.248 296.036c2.19434 2.36523 5.27051 3.71387 8.49512 3.72363c6.42578 0 11.6357 -5.20898 11.6357 -11.6357c0.046875 -3.76465 -1.73047 -7.32129 -4.77051 -9.54199c-5.27637 -4.75879 -10.2754 -9.81543 -14.9736 -15.1455
c-67.9873 -77.1416 -60.5684 -194.791 16.5723 -262.779s194.791 -60.5693 262.779 16.5723c2.15723 2.0791 5.0332 3.24609 8.02832 3.25781c0.078125 0.000976562 0.15625 0.000976562 0.234375 0zM177.746 299.287c-4.70215 5.1748 -8.33887 11.2246 -10.707 17.8057
c6.22461 22.1943 18.9023 42.0391 36.4219 57.0186c4.7168 -4.63672 10.0879 -8.55762 15.9424 -11.6367c6.16797 -1.62891 10.5898 13.498 20.3633 10.0078c9.77441 -3.49121 7.09863 2.67578 19.5498 1.74414c12.4502 -0.930664 5.35254 -13.499 -1.74512 -16.5234
c-7.09863 -3.02637 -24.4365 0.464844 -10.2402 -13.0332c14.1963 -13.499 6.63281 9.07617 23.9707 9.07617s20.3643 -6.05078 21.7598 -14.3135c1.39746 -8.26172 -8.84277 -10.0068 -19.8975 -14.7773c-11.0547 -4.77148 -27.5781 -15.2441 -28.3926 -25.251
c-0.81543 -10.0068 -9.77539 -16.1758 -12.4512 -5.70215c-2.67773 10.4717 -5.81836 10.9375 -16.873 5.23633c-11.0547 -5.70215 -1.28027 -16.9893 7.56348 -25.252c8.84473 -8.26172 1.28027 -8.26172 1.28027 -8.26172
c-39.9121 18.6182 -46.5449 33.8623 -46.5449 33.8623zM264.777 271.941c18.8438 -0.0214844 15.749 -5.37695 31.1934 -18.0361c15.4766 -12.6846 7.56445 -25.3672 0 -34.9092c-9.37207 -11.5205 -15.4795 -25.3438 -17.6865 -40.0293
c-1.28027 -6.86621 -3.14258 -9.89062 -5.35352 -9.89062h-1.5127c-3.60742 0.813477 -7.33105 6.28418 -9.07617 8.95996c-6.34863 8.26465 -8.77051 18.8906 -6.63281 29.0908c1.8623 19.7822 -12.1016 8.37891 -16.9893 34.4443
c-4.87598 26.0078 7.04688 30.3506 26.0576 30.3701z" />
    <glyph glyph-name="uniF1CB" unicode="&#xf1cb;" 
d="M407.272 424.727c6.42676 0 11.6367 -5.20898 11.6377 -11.6357v-116.363c0.0742188 -5.76367 -4.08398 -10.7139 -9.77539 -11.6357h-0.698242h-1.16309c-1.64746 0.00683594 -3.27344 0.364258 -4.77148 1.04688l-146.502 20.9453v-312.902
c0 -32.1328 -26.0488 -58.1816 -58.1816 -58.1816h-46.5449c-32.1338 0 -58.1826 26.0488 -58.1826 58.1816c0 32.1338 26.0488 58.1826 58.1826 58.1826h46.5449c12.5889 0 24.8379 -4.08301 34.9082 -11.6367v395.637c-0.0644531 5.80176 4.1543 10.7656 9.8916 11.6357
h0.582031h1.16309c1.64648 -0.00683594 3.27246 -0.364258 4.77051 -1.04688l156.394 -22.2266c0.580078 0.0517578 1.16406 0.0517578 1.74512 0zM197.818 -40.7266c19.2783 0 34.9082 15.6289 34.9082 34.9082c0 19.2803 -15.6289 34.9092 -34.9082 34.9092h-46.5449
c-19.2803 0 -34.9092 -15.6289 -34.9092 -34.9092c0 -19.2793 15.6289 -34.9082 34.9092 -34.9082h46.5449zM395.636 309.644v93.9053l-139.636 19.8984v-93.9053z" />
    <glyph glyph-name="uniF12C" unicode="&#xf12c;" 
d="M325.818 5.81836c-6.42676 0 -11.6367 5.20996 -11.6377 11.6367l16.873 280.087c0.225586 6.42676 5.61719 11.4541 12.0439 11.2295c6.42773 -0.225586 11.4541 -5.61719 11.2295 -12.0449l-16.873 -279.272c0 -6.42578 -5.20898 -11.6357 -11.6357 -11.6357z
M256 5.81836c-6.42676 0 -11.6357 5.20996 -11.6357 11.6357v279.272c0 6.42676 5.20898 11.6367 11.6357 11.6367c6.42578 0 11.6357 -5.20898 11.6357 -11.6367v-279.272c0 -6.42578 -5.20898 -11.6357 -11.6357 -11.6357zM186.182 5.81836
c-6.42676 0 -11.6367 5.20996 -11.6367 11.6357l-17.1045 278.458c-0.225586 6.42676 4.80176 11.8193 11.2285 12.0439s11.8193 -4.80176 12.0439 -11.2295l17.1055 -279.272c0 -6.42578 -5.20898 -11.6357 -11.6367 -11.6357zM453.818 378.182
c6.42676 0 11.6367 -5.21094 11.6367 -11.6367s-5.20898 -11.6357 -11.6357 -11.6357h-23.2734l-23.2725 -372.364c-4.42188 -25.25 -20.8291 -46.5449 -46.5459 -46.5449h-209.454c-25.7178 0 -42.8223 21.0615 -46.5459 46.5459l-23.2725 372.364h-23.2734
c-6.42578 0 -11.6357 5.20996 -11.6357 11.6357s5.20898 11.6357 11.6357 11.6357h116.363v46.5449c0 12.8535 10.4199 23.2734 23.2734 23.2734h116.363c12.8535 0 23.2734 -10.4199 23.2734 -23.2734v-46.5449h116.363zM197.818 424.727v-46.5449h116.363v46.5449
h-116.363zM384 -17.4551l23.2725 372.364h-302.546l23.2734 -372.364c0.794922 -12.5088 10.7637 -22.4775 23.2734 -23.2725h209.453c12.5322 0.743164 22.5293 10.7402 23.2734 23.2725z" />
    <glyph glyph-name="uniF1E6" unicode="&#xf1e6;" 
d="M500.364 448c6.42578 0 11.6357 -5.20996 11.6357 -11.6357v-162.909c0 -6.42676 -5.21094 -11.6357 -11.6367 -11.6357c-6.42676 0 -11.6367 5.20898 -11.6367 11.6357v134.865l-189.673 -189.557c-0.388672 -0.455078 -0.813477 -0.878906 -1.26855 -1.26855
c-4.88086 -4.18066 -12.2275 -3.6123 -16.4072 1.26855c-4.18066 4.88086 -3.6123 12.2275 1.26953 16.4072l189.673 189.557h-134.865c-6.42578 0 -11.6357 5.21094 -11.6357 11.6367s5.20898 11.6357 11.6357 11.6357h162.909zM221.091 168.727
c3.12598 0.0185547 6.12793 -1.22168 8.33008 -3.44238c4.52539 -4.56348 4.49512 -11.9307 -0.0683594 -16.4561l-189.673 -189.556h134.865c6.42578 0 11.6357 -5.21094 11.6357 -11.6367s-5.20898 -11.6357 -11.6357 -11.6357h-162.909
c-6.42578 0 -11.6357 5.20996 -11.6357 11.6357v162.909c0 6.42676 5.21094 11.6357 11.6367 11.6357c6.42676 0 11.6367 -5.20898 11.6367 -11.6357v-134.865l189.556 189.672c2.19629 2.17969 5.16895 3.39355 8.26172 3.375z" />
    <glyph glyph-name="uniF108" unicode="&#xf108;" 
d="M418.909 273.455c0 -25.707 -20.8389 -46.5459 -46.5459 -46.5459h-360.728c-6.42578 0 -11.6357 5.20898 -11.6357 11.6357s5.20996 11.6367 11.6357 11.6367h360.729c12.8525 0 23.2725 10.4199 23.2725 23.2734c0 12.8525 -10.4199 23.2725 -23.2725 23.2725h-11.6367
c-6.42578 0 -11.6357 5.21094 -11.6357 11.6367s5.20898 11.6357 11.6357 11.6357h11.6367c25.7061 0 46.5449 -20.8389 46.5449 -46.5449zM58.1816 273.455c-6.42676 0 -11.6367 5.20898 -11.6357 11.6377c0 6.42578 5.20898 11.6357 11.6357 11.6357h174.545
c25.7061 0 46.5459 20.8398 46.5459 46.5459s-20.8398 46.5449 -46.5459 46.5449h-11.6357c-6.42578 0 -11.6357 5.20898 -11.6357 11.6357c0 6.42578 5.20898 11.6357 11.6357 11.6357h11.6357c38.5596 0 69.8184 -31.2578 69.8184 -69.8174
s-31.2578 -69.8184 -69.8184 -69.8184h-174.545zM279.273 157.091c51.4111 0 93.0908 -41.6777 93.0898 -93.0889c0 -51.4131 -41.6787 -93.0908 -93.0908 -93.0908h-11.6367c-6.42578 0 -11.6357 5.20898 -11.6357 11.6357c0 6.42578 5.20898 11.6357 11.6357 11.6357
h11.6367c38.5586 0 69.8174 31.2598 69.8174 69.8184s-31.2578 69.8184 -69.8174 69.8184h-174.546c-6.42578 0 -11.6357 5.20996 -11.6357 11.6357s5.20898 11.6357 11.6357 11.6357h174.547zM442.182 203.636c38.5596 0 69.8174 -31.2588 69.8174 -69.8174
c0 -38.5596 -31.2578 -69.8184 -69.8184 -69.8184h-11.6357c-6.42578 0 -11.6348 5.21191 -11.6348 11.6377c0 6.42676 5.20898 11.6367 11.6357 11.6367h11.6357c25.7061 0 46.5449 20.8389 46.5449 46.5449s-20.8389 46.5449 -46.5449 46.5449h-384
c-6.42578 0 -11.6357 5.20996 -11.6357 11.6357s5.20898 11.6357 11.6357 11.6357h384z" />
    <glyph glyph-name="uniF1F4" unicode="&#xf1f4;" 
d="M116.364 261.818c12.8525 0 23.2715 -10.4189 23.2725 -23.2734v-279.271c0 -12.8535 -10.4199 -23.2734 -23.2725 -23.2734h-93.0908c-12.8535 0 -23.2734 10.4199 -23.2734 23.2725v279.272c0 12.8545 10.4199 23.2734 23.2734 23.2734h93.0908zM116.364 -40.7266
v279.271h-93.0908v-279.271h93.0908zM488.727 448c12.8535 0 23.2734 -10.4199 23.2744 -23.2734v-93.0908c0 -12.8525 -10.4199 -23.2725 -23.2734 -23.2725h-465.454c-12.8535 0 -23.2734 10.4199 -23.2734 23.2725v93.0908c0 12.8535 10.4199 23.2734 23.2734 23.2734
h465.453zM488.727 331.636h0.000976562v93.0908h-465.454v-93.0908h465.453zM488.727 261.818c12.8535 0 23.2734 -10.4189 23.2734 -23.2734v-279.271c0 -12.8535 -10.4199 -23.2734 -23.2725 -23.2744h-279.272c-12.8535 0 -23.2734 10.4199 -23.2734 23.2734v279.272
c0 12.8535 10.4199 23.2734 23.2734 23.2734h279.271zM488.727 -40.7266h0.000976562v279.271h-279.272v-279.271h279.271z" />
    <glyph glyph-name="uniF258" unicode="&#xf258;" 
d="M81.4551 285.091c-6.42676 0 -11.6357 5.20996 -11.6357 11.6357c0 6.42676 5.20898 11.6367 11.6357 11.6367h139.636c6.42578 0 11.6357 -5.20996 11.6357 -11.6367c0 -6.42578 -5.20898 -11.6357 -11.6357 -11.6357h-139.636zM290.909 192
c-6.42578 0 -11.6357 5.20996 -11.6357 11.6357s5.20898 11.6367 11.6357 11.6367h93.0908c6.42578 0 11.6357 -5.21094 11.6357 -11.6367s-5.20898 -11.6357 -11.6357 -11.6357h-93.0908zM290.909 145.455c-6.42578 0 -11.6357 5.20898 -11.6357 11.6357
c0 6.42578 5.20898 11.6357 11.6357 11.6357h139.636c6.42578 0 11.6357 -5.20898 11.6357 -11.6357c0 -6.42578 -5.20898 -11.6357 -11.6357 -11.6357h-139.636zM290.909 238.545c-6.42578 0 -11.6357 5.20996 -11.6357 11.6357c0 6.42676 5.20898 11.6367 11.6357 11.6367
h139.636c6.42578 0 11.6357 -5.20996 11.6357 -11.6367c0 -6.42578 -5.20898 -11.6357 -11.6357 -11.6357h-139.636zM290.909 285.091c-6.42578 0 -11.6357 5.20996 -11.6357 11.6357c0 6.42676 5.20898 11.6367 11.6357 11.6367h93.0908
c6.42578 0 11.6357 -5.20996 11.6357 -11.6367c0 -6.42578 -5.20898 -11.6357 -11.6357 -11.6357h-93.0908zM81.4551 145.455c-6.42676 0 -11.6367 5.20898 -11.6357 11.6357c0 6.42578 5.20898 11.6357 11.6357 11.6357h93.0908
c6.42578 0 11.6357 -5.20898 11.6357 -11.6357c0 -6.42578 -5.20898 -11.6357 -11.6357 -11.6357h-93.0908zM81.4551 238.545c-6.42676 0 -11.6357 5.20996 -11.6357 11.6357c0 6.42676 5.20898 11.6367 11.6357 11.6367h93.0908
c6.42578 0 11.6357 -5.20996 11.6357 -11.6367c0 -6.42578 -5.20898 -11.6357 -11.6357 -11.6357h-93.0908zM488.727 378.182c12.8535 0 23.2734 -10.4199 23.2744 -23.2725v-325.818c0 -12.8525 -10.4199 -23.2725 -23.2734 -23.2725h-465.454
c-12.8535 0 -23.2734 10.4199 -23.2734 23.2725v325.818c0 12.8525 10.4199 23.2725 23.2734 23.2725h465.453zM488.727 29.0908h0.000976562v325.818h-465.454v-325.818h116.363v46.5449h-23.2725c-6.42578 0 -11.6367 5.20996 -11.6367 11.6367
c0 6.42578 5.20898 11.6357 11.6367 11.6357h69.8174c6.42676 0 11.6367 -5.20996 11.6367 -11.6357c0 -6.42676 -5.20898 -11.6367 -11.6367 -11.6367h-23.2725v-46.5449h186.183v46.5449h-23.2725c-6.42676 0 -11.6367 5.20996 -11.6367 11.6367
c0 6.42578 5.20898 11.6357 11.6367 11.6357h69.8174c6.42676 0 11.6367 -5.20996 11.6367 -11.6357c0 -6.42676 -5.20898 -11.6367 -11.6367 -11.6367h-23.2725v-46.5449h116.362zM81.4551 192c-6.42676 0 -11.6357 5.20996 -11.6357 11.6357
s5.20898 11.6367 11.6357 11.6367h139.636c6.42578 0 11.6357 -5.21094 11.6357 -11.6367s-5.20898 -11.6357 -11.6357 -11.6357h-139.636z" />
    <glyph glyph-name="uniF1DE" unicode="&#xf1de;" 
d="M511.94 335.341c2.03809 -64.2441 -48.3896 -117.977 -112.634 -120.015l-198.548 -177.365c-25.541 -25.7285 -66.6025 -27.4033 -94.1533 -3.84082c-32.1221 -17.5732 -33.1689 -25.6035 -25.7207 -47.9492c3.57227 -9.36328 2.21777 -19.8936 -3.60742 -28.0479
c-15.1299 -21.0654 -57.377 -22.1133 -65.6396 -22.1133c-6.42773 0 -11.6377 5.21094 -11.6377 11.6377c0 6.42773 5.20996 11.6377 11.6377 11.6387c15.8281 0 40.7344 3.8418 46.5527 12.2207c0 0.814453 1.51367 2.56055 0 7.09863
c-11.6377 37.5918 0.81543 54.8164 33.1689 73.7861c-16.3359 27.2451 -11.9648 62.123 10.5908 84.4932l177.366 197.851c0.798828 29.7305 12.9502 58.0283 33.959 79.082c45.4014 45.4971 119.091 45.5752 164.589 0.172852
c20.9502 -20.9268 33.1367 -49.0527 34.0762 -78.6494zM184.232 54.2529l183.069 164.681c-41.4707 10.2285 -73.9189 42.498 -84.377 83.9111l-164.564 -182.719c-18.1904 -18.1904 -18.1904 -47.6826 0 -65.873c18.1904 -18.1895 47.6816 -18.1895 65.8721 0z
M461.339 265.486c36.3311 36.3555 36.3311 95.2734 0 131.629c-0.0146484 0.0136719 -0.0292969 0.0292969 -0.0429688 0.0429688c-36.373 36.3486 -95.3232 36.3281 -131.672 -0.0429688c-36.3486 -36.3721 -36.3291 -95.3232 0.0429688 -131.672
s95.3232 -36.3281 131.672 0.0429688zM216.937 168.773l57.6094 74.4844l32.8193 -32.7031l-74.0195 -58.1914z" />
    <glyph glyph-name="uniF233" unicode="&#xf233;" 
d="M221.091 192c0 19.2793 15.6299 34.9092 34.9092 34.9092s34.9092 -15.6299 34.9092 -34.9092s-15.6299 -34.9092 -34.9092 -34.9092s-34.9092 15.6299 -34.9092 34.9092zM256 354.909c141.382 0 256 -116.364 256 -162.909s-114.618 -162.909 -256 -162.909
s-256 116.364 -256 162.909s114.618 162.909 256 162.909zM256 52.3643c128 0 232.727 99.7227 232.727 139.636s-104.727 139.636 -232.727 139.636s-232.727 -99.7236 -232.727 -139.636s104.727 -139.636 232.727 -139.636zM256 308.364
c64.2656 0 116.364 -52.0986 116.364 -116.364s-52.0986 -116.364 -116.364 -116.364s-116.364 52.0986 -116.364 116.364s52.0986 116.364 116.364 116.364zM256 98.9092c51.4131 0 93.0908 41.6777 93.0908 93.0908s-41.6777 93.0908 -93.0908 93.0908
s-93.0908 -41.6777 -93.0908 -93.0908s41.6777 -93.0908 93.0908 -93.0908z" />
    <glyph glyph-name="uniF27A" unicode="&#xf27a;" 
d="M465.455 448c25.7061 0 46.5449 -20.8389 46.5449 -46.5449v-418.91c0 -25.7061 -20.8389 -46.5449 -46.5459 -46.5449h-418.909c-25.7061 0 -46.5449 20.8389 -46.5449 46.5459v418.909c0 25.7061 20.8389 46.5449 46.5449 46.5449h418.91zM488.727 -17.4551v418.91
c0 12.8525 -10.4199 23.2725 -23.2725 23.2725h-418.909c-12.8525 0 -23.2725 -10.4199 -23.2725 -23.2725v-418.91c0 -12.8525 10.4199 -23.2725 23.2725 -23.2725h418.909c12.8525 0 23.2725 10.4199 23.2725 23.2725zM139.636 354.909
c25.707 0 46.5459 -20.8389 46.5449 -46.5449c0 -25.7061 -20.8389 -46.5449 -46.5449 -46.5449s-46.5449 20.8389 -46.5449 46.5449s20.8389 46.5449 46.5449 46.5449zM139.636 285.091c12.8545 0 23.2734 10.4189 23.2734 23.2734
c0 12.8525 -10.4199 23.2725 -23.2734 23.2725c-12.8525 0 -23.2725 -10.4199 -23.2725 -23.2725c0 -12.8535 10.4199 -23.2734 23.2725 -23.2734zM343.273 117.644c8.77637 5.13672 16.292 12.1748 21.9932 20.5967l30.3711 -23.2734
c-8.48145 -12.7256 -20.2686 -22.9023 -34.0947 -29.4395c-13.4414 -6.27441 -28.1045 -9.49316 -42.9375 -9.42578c-15.0645 -0.19043 -30.0166 2.61816 -43.9854 8.2627c-13.1602 5.18457 -25.0625 13.1191 -34.9092 23.2725
c-9.91699 10.5059 -17.6318 22.8906 -22.6914 36.4219c-5.60254 15.1123 -8.36426 31.1299 -8.14551 47.2441c-0.232422 16.4951 2.52832 32.8965 8.14551 48.4072c4.99902 13.7686 12.7168 26.3926 22.6914 37.1201c9.83301 10.1709 21.7393 18.1084 34.9092 23.2725
c13.9678 5.64453 28.9199 8.45312 43.9854 8.2627c13.3984 0.180664 26.6836 -2.47656 38.9814 -7.7959c13.1221 -6.2666 24.5684 -15.5586 33.3965 -27.1133l-28.5098 -22.3418c-5.8877 7.46484 -13.4121 13.4766 -21.9922 17.5703
c-6.77832 2.86426 -14.0537 4.36719 -21.4111 4.42285c-10.0264 0.165039 -19.9629 -1.90234 -29.0918 -6.05176c-8.55566 -3.98242 -16.1699 -9.7334 -22.3418 -16.873c-6.38379 -7.54492 -11.2793 -16.2305 -14.4287 -25.5996
c-3.46777 -9.94824 -5.2002 -20.418 -5.12012 -30.9531c-0.120117 -11.1836 1.61035 -22.3105 5.12012 -32.9307c3.11621 -9.48828 8.0127 -18.2949 14.4287 -25.9492c6.08594 -7.22168 13.6172 -13.0889 22.1094 -17.2217
c9.09473 -4.27539 19.043 -6.4248 29.0908 -6.28418c8.55566 0.0292969 16.9639 2.23047 24.4365 6.39941z" />
    <glyph glyph-name="uniF1BF" unicode="&#xf1bf;" 
d="M22.6787 169.671c1.37598 -14.3262 4.06934 -28.4951 8.04492 -42.3271l-21.5703 -5.83008c-4.3584 15.2422 -7.28516 30.8564 -8.74512 46.6416zM26.5273 77.2051l19.3564 10.0283c6.62305 -12.9004 14.4307 -25.1572 23.3203 -36.6133l-17.7236 -13.5264
c-9.53027 12.5771 -17.8838 26.0039 -24.9531 40.1113zM131.585 390.282c-12.1973 -7.64551 -23.6719 -16.3887 -34.2812 -26.1182l-15.2744 16.3242c11.6826 10.7041 24.3301 20.3057 37.7783 28.6836l11.6602 -18.8896h0.117188zM83.4287 2.34668l14.458 16.4424
c10.8281 -9.7002 22.5391 -18.3672 34.9814 -25.8857l-11.6602 -18.8906c-13.4346 8.26758 -26.0811 17.751 -37.7793 28.334zM298.327 421.765c-14.1152 2.62012 -28.4385 3.94727 -42.7939 3.96387l-1.04883 22.2715h1.28223
c15.6465 -0.015625 31.2578 -1.45996 46.6416 -4.31445zM163.651 -46.9756l8.0459 20.7549c13.4463 -5.16016 27.3428 -9.06445 41.5098 -11.6602l-4.08105 -21.9209c-15.5234 2.8584 -30.7461 7.15234 -45.4746 12.8262zM30.375 255.257
c-3.91113 -13.876 -6.52637 -28.085 -7.81348 -42.4424l-22.1533 1.98145c1.38184 15.7783 4.23145 31.3926 8.51172 46.6406zM211.458 421.648c-14.0986 -2.72461 -27.917 -6.74414 -41.2773 -12.0098l-8.16211 20.7549c14.6846 5.74219 29.8682 10.1143 45.3584 13.0596
l4.08105 -21.6885v-0.116211zM68.3867 332.214c-8.66016 -11.5576 -16.2314 -23.8926 -22.6211 -36.8457l-19.9385 9.91113c6.99121 14.1377 15.2646 27.6035 24.7197 40.2275zM390.092 409.755l-11.6611 -19.0059c-12.2461 7.58594 -25.165 14.0273 -38.5947 19.2393
l8.0459 20.7549c14.6904 -5.67285 28.8213 -12.6992 42.21 -20.9883zM267.427 63.2129c0 -6.43945 -5.21973 -11.6602 -11.6602 -11.6602c-6.43945 0 -11.6592 5.2207 -11.6592 11.6602v228.89l-73.3438 -73.3428c-0.390625 -0.456055 -0.81543 -0.880859 -1.27148 -1.27148
c-4.8916 -4.18945 -12.252 -3.61914 -16.4414 1.27148c-4.18848 4.8916 -3.61914 12.252 1.27246 16.4414l93.2822 93.2822c4.54785 4.52051 11.8926 4.52051 16.4404 0l93.2822 -93.2822c0.456055 -0.391602 0.880859 -0.816406 1.27148 -1.27246
c4.18945 -4.89062 3.61914 -12.252 -1.27148 -16.4404c-4.8916 -4.18945 -12.252 -3.61914 -16.4414 1.27148l-73.3428 73.3428v-228.89h-0.117188zM501.797 262.253l-21.5723 -6.06348c-3.95312 13.8633 -9.18457 27.3291 -15.625 40.2275l20.0566 9.79492
c7.05566 -14.0938 12.7939 -28.8086 17.1406 -43.959zM510.309 215.845c0.0078125 -0.0800781 0.0146484 -0.162109 0.0214844 -0.242188l0.0957031 0.00976562zM510.33 215.603c0.689453 -7.74902 1.26172 -16.2764 1.25977 -23.8945
c0 -7.69531 -0.348633 -15.624 -1.04883 -23.3203l-22.1543 1.98242c0.933594 7.11328 0.933594 13.9922 0.933594 21.3379s-0.349609 14.6924 -1.04883 21.8047zM464.834 88.0488c6.4082 12.8994 11.5986 26.3662 15.5078 40.2285l21.4551 -6.06348
c-4.29883 -15.1865 -9.99805 -29.9414 -17.0234 -44.0762zM340.303 -25.8711c13.3965 5.20605 26.2773 11.6475 38.4795 19.2402l11.6602 -18.8906c-13.3887 -8.32227 -27.5186 -15.3887 -42.21 -21.1045l-8.04688 20.7549h0.117188zM413.18 19.4873
c10.6035 9.77734 20.2832 20.5117 28.917 32.0654l17.957 -13.5254c-9.51074 -12.6162 -20.167 -24.3262 -31.832 -34.9814zM255.883 -41.7285c14.2812 0.0712891 28.5264 1.4375 42.5605 4.08008l4.08105 -21.9209c-15.3838 -2.87109 -30.9932 -4.35352 -46.6416 -4.43066
v22.2715zM441.864 332.914c-8.67969 11.5156 -18.3984 22.2109 -29.0342 31.9492l14.9258 16.4404c11.6631 -10.6572 22.3184 -22.3682 31.832 -34.9805z" />
    <glyph glyph-name="uniF1D1" unicode="&#xf1d1;" 
d="M221.091 122.182c19.2803 0 34.9092 -15.6299 34.9092 -34.9082c0 -19.2803 -15.6289 -34.9092 -34.9092 -34.9092s-34.9092 15.6289 -34.9092 34.9092c0 19.2793 15.6289 34.9082 34.9092 34.9082zM221.091 75.6357c6.42676 0 11.6357 5.20996 11.6357 11.6367
c0 6.42578 -5.20898 11.6357 -11.6357 11.6357c-6.42578 0 -11.6357 -5.20996 -11.6357 -11.6357c0 -6.42676 5.20898 -11.6367 11.6357 -11.6367zM93.0908 145.455c0 12.8535 10.4199 23.2725 23.2734 23.2725s23.2725 -10.4189 23.2725 -23.2725
s-10.4189 -23.2734 -23.2725 -23.2734s-23.2734 10.4199 -23.2734 23.2734zM395.636 238.545c25.707 0 46.5449 -20.8389 46.5449 -46.5449s-20.8389 -46.5449 -46.5449 -46.5449s-46.5449 20.8389 -46.5449 46.5449s20.8389 46.5449 46.5449 46.5449zM395.636 168.727
c12.8545 0 23.2734 10.4209 23.2734 23.2734s-10.4199 23.2734 -23.2734 23.2734c-12.8525 0 -23.2725 -10.4209 -23.2725 -23.2734c0 -12.8535 10.4199 -23.2734 23.2725 -23.2734zM256 448c141.385 0 256 -114.615 256 -256s-114.615 -256 -256 -256
s-256 114.615 -256 256s114.615 256 256 256zM256 -40.7266c128.532 0 232.727 104.194 232.727 232.727s-104.194 232.727 -232.727 232.727s-232.727 -104.194 -232.727 -232.727s104.194 -232.727 232.727 -232.727zM325.819 40.7266
c0 6.42676 5.20898 11.6367 11.6357 11.6367s11.6357 -5.20996 11.6357 -11.6367c0 -6.42578 -5.20898 -11.6357 -11.6357 -11.6357s-11.6357 5.20996 -11.6357 11.6357zM186.182 354.909c38.5596 0 69.8184 -31.2578 69.8184 -69.8184
c0 -38.5596 -31.2588 -69.8174 -69.8184 -69.8174c-38.5586 0 -69.8174 31.2588 -69.8174 69.8174c0 38.5596 31.2578 69.8184 69.8174 69.8184zM186.182 238.545c25.7061 0 46.5449 20.8398 46.5449 46.5449c0 25.7061 -20.8389 46.5449 -46.5449 46.5449
s-46.5449 -20.8389 -46.5449 -46.5449s20.8389 -46.5449 46.5449 -46.5449zM279.273 180.364c0 6.42578 5.20898 11.6357 11.6357 11.6357c6.42578 0 11.6357 -5.20996 11.6357 -11.6357c0 -6.42676 -5.20996 -11.6367 -11.6357 -11.6367
c-6.42676 0 -11.6357 5.20996 -11.6357 11.6367z" />
    <glyph glyph-name="uniF2B2" unicode="&#xf2b2;" 
d="M314.13 261.874c32.0898 0 58.1338 -31.2734 58.1338 -69.7578c0 -38.4834 -26.0439 -69.7598 -58.1338 -69.7598c-6.4209 0 -11.626 5.20605 -11.626 11.626c0 6.4209 5.2041 11.627 11.626 11.627c19.2998 0 34.8799 20.8115 34.8799 46.5059
s-15.5801 46.5068 -34.8799 46.5068c-6.4209 0 -11.626 5.20508 -11.626 11.626s5.2041 11.626 11.626 11.626zM425.28 365.119c54.9111 -40.459 87.082 -104.802 86.5029 -173.004c0.265625 -67.2002 -31.2471 -130.571 -84.9912 -170.912l-1.74316 -1.39551
c-1.84668 -1.29102 -4.02832 -2.01758 -6.2793 -2.09277c-6.4209 0 -11.626 5.20508 -11.626 11.626c0.204102 3.47363 1.95312 6.67285 4.7666 8.71973c48.7227 36.1309 77.2061 93.4004 76.6201 154.054c0.455078 60.4951 -28.0166 117.567 -76.6201 153.588
c-2.93945 2.14746 -4.70312 5.54688 -4.7666 9.18555c0 6.4209 5.2041 11.626 11.626 11.626c2.25977 0.179688 4.52246 -0.304688 6.51074 -1.39453zM244.469 448c19.2637 -0.0546875 34.835 -15.7148 34.7803 -34.9785v-1.2793v-439.257v-1.27832
c0.0898438 -9.58691 -3.76953 -18.79 -10.6738 -25.4434c-13.8711 -13.3662 -35.9512 -12.959 -49.3193 0.911133l-141.846 129.173c-43.0176 3.48828 -77.2002 54.2969 -77.2002 116.267c0 61.9707 33.9492 112.431 76.7363 116.268l142.194 128.823
c6.60547 6.91895 15.7627 10.8223 25.3281 10.7949zM69.9697 100.961v182.307c-26.5078 -8.60449 -46.5059 -46.5068 -46.5059 -91.1533s19.9971 -82.5488 46.5059 -91.1533zM209.489 -12.748v409.841l-111.034 -100.92l-5.23145 -4.76758v-198.234zM255.996 380.233
v32.7881c0.0185547 3.12402 -1.2207 6.12402 -3.43848 8.32227c-4.55957 4.52148 -11.9199 4.49219 -16.4424 -0.0673828l-3.37207 -3.13965v-452.045l3.13867 -2.79102c2.18945 -2.33691 5.24609 -3.66895 8.44824 -3.67969
c6.4209 -0.0214844 11.6445 5.16504 11.666 11.5869v409.025zM374.704 315.008c42.5371 -26.2314 68.1152 -72.9248 67.3193 -122.896c0.59082 -49.7617 -24.9619 -96.1875 -67.3193 -122.312c-1.71484 -1.06641 -3.67871 -1.66699 -5.69727 -1.74414
c-6.41992 0 -11.626 5.20508 -11.626 11.627c0.0849609 3.87012 2.09082 7.44434 5.34863 9.5332c35.5371 21.999 56.8379 61.1094 56.04 102.896c1.00586 41.9932 -20.3223 81.373 -56.04 103.478c-3.25977 2.08984 -5.26465 5.66504 -5.34863 9.53418
c0 6.4209 5.20508 11.626 11.626 11.626c2.01855 -0.0751953 3.98242 -0.676758 5.69727 -1.74316z" />
    <glyph glyph-name="uniF1A6" unicode="&#xf1a6;" 
d="M116.364 192c-25.707 0 -46.5459 20.8389 -46.5449 46.5449c0 25.7061 20.8389 46.5449 46.5449 46.5449s46.5449 -20.8389 46.5449 -46.5449s-20.8389 -46.5449 -46.5449 -46.5449zM116.364 261.818c-12.8545 0 -23.2734 -10.4189 -23.2734 -23.2734
c0 -12.8525 10.4199 -23.2725 23.2734 -23.2725c12.8525 0 23.2725 10.4199 23.2725 23.2725c0 12.8535 -10.4199 23.2734 -23.2725 23.2734zM372.364 354.909c25.7061 0 46.5449 -20.8389 46.5439 -46.5449v-325.819c0 -25.7061 -20.8389 -46.5449 -46.5449 -46.5449
h-325.818c-25.7061 0 -46.5449 20.8389 -46.5449 46.5459v325.818c0 25.7061 20.8389 46.5449 46.5449 46.5449h325.819zM395.636 -17.4551v325.819c0 12.8525 -10.4199 23.2725 -23.2725 23.2725h-325.818c-12.8525 0 -23.2725 -10.4199 -23.2725 -23.2725v-325.819
c0 -12.8525 10.4199 -23.2725 23.2725 -23.2725h325.818c12.8525 0 23.2725 10.4199 23.2725 23.2725zM465.455 448c25.7061 0 46.5449 -20.8389 46.5439 -46.5449v-325.818c0 -25.7061 -20.8389 -46.5449 -46.5449 -46.5449h-11.6357
c-6.42676 0 -11.6367 5.20898 -11.6367 11.6357s5.20898 11.6367 11.6367 11.6367h11.6357c12.8525 0 23.2725 10.4199 23.2725 23.2725v325.818c0 12.8525 -10.4199 23.2725 -23.2725 23.2725h-325.818c-12.8525 0 -23.2725 -10.4199 -23.2725 -23.2725v-11.6357
c0 -6.42676 -5.20898 -11.6367 -11.6367 -11.6367c-6.42578 0 -11.6357 5.20898 -11.6357 11.6367v11.6357c0 25.7061 20.8389 46.5449 46.5449 46.5449h325.819zM348.276 22.458v-0.698242c0.546875 -1.37402 0.826172 -2.83887 0.825195 -4.31641
c-0.00683594 -6.42773 -5.2207 -11.6318 -11.6475 -11.625h-256c-6.42578 0 -11.6357 5.20898 -11.6357 11.6357c0.0742188 2.25391 0.802734 4.43652 2.09473 6.28418l93.0898 139.637c2.09082 3.26172 5.66895 5.26758 9.54199 5.35254
c4.74023 0.0234375 9.02148 -2.8291 10.8223 -7.21484l37.4688 -56.2041l36.6553 36.6553c1.09863 1.08301 2.40234 1.93652 3.83496 2.51074c5.96484 2.39258 12.7393 -0.50293 15.1318 -6.46777zM103.215 29.0908h213.878l-51.7822 85.9932l-36.0723 -36.0732
c-1.07129 -1.07129 -2.33984 -1.9248 -3.73828 -2.51074c-5.92773 -2.48438 -12.7461 0.307617 -15.2305 6.23535l-35.7236 53.5264z" />
    <glyph glyph-name="uniF109" unicode="&#xf109;" 
d="M463.747 156.669c29.6465 -16.4033 48.0342 -47.623 48.0049 -81.5049c-0.0458984 -51.3926 -41.7441 -93.0176 -93.1367 -92.9727h-325.692c-42.9873 0.0703125 -80.332 29.5771 -90.3428 71.3818c-11.9697 49.9795 18.8447 100.199 68.8242 112.168
c10.2383 68.2539 68.8203 118.779 137.838 118.878c8.39648 -0.0908203 16.7676 -0.947266 25.0078 -2.55859c4.77832 33.2803 21.4092 63.7188 46.835 85.7188c58.2969 50.4404 146.445 44.0713 196.886 -14.2246c50.4414 -58.2969 44.0723 -146.445 -14.2236 -196.886z
M372.088 377.674c-58.7012 0.108398 -108.283 -43.5381 -115.619 -101.779c28.6699 -10.3066 53.1807 -29.7119 69.791 -55.252c12.6289 10.998 28.792 17.0869 45.5381 17.1562c38.5449 0.161133 69.9209 -30.9541 70.082 -69.499
c29.29 21.9678 46.5273 56.4434 46.5273 93.0557c0 64.2412 -52.0781 116.318 -116.319 116.318zM488.769 59.8428c8.48926 37.5986 -15.1074 74.96 -52.7041 83.4492c-10.5439 2.7168 -17.792 12.3818 -17.4482 23.2637v1.74414
c-0.0390625 11.1934 -4.11133 21.998 -11.4717 30.4316c-16.8955 19.3613 -46.2881 21.3594 -65.6484 4.46387c-4.27734 -3.5459 -9.68359 -5.44336 -15.2383 -5.35059h-3.25684c-10.9004 5.03711 -20.4639 12.5684 -27.916 21.9844
c-21.6348 33.2676 -46.4111 41.5264 -85.8428 41.5264c-57.5049 -0.115234 -106.296 -42.2324 -114.807 -99.1035c-1.41211 -9.41211 -8.41602 -17.0137 -17.6807 -19.1934c-31.1621 -7.57812 -53.1494 -35.4189 -53.2979 -67.4893
c-0.178711 -38.5439 30.9219 -69.9365 69.4658 -70.1152h325.693c33.3857 -0.993164 62.7959 21.8076 70.1523 54.3887z" />
    <glyph glyph-name="uniF151" unicode="&#xf151;" 
d="M314.764 125.44c3.5459 -0.602539 6.69531 -2.61816 8.72754 -5.58691c1.9834 -3.54492 2.44531 -7.74316 1.28027 -11.6357c-1.2168 -5.7793 -6.56934 -9.73242 -12.4512 -9.19238c-1.53223 -0.0107422 -3.05859 0.185547 -4.53809 0.582031
c-3.39941 0.804688 -6.38184 2.83496 -8.37793 5.70117c-1.94727 2.99609 -2.49902 6.69043 -1.51367 10.124c0.115234 0.65332 0.279297 1.29785 0.492188 1.92578c2.29199 6.75488 9.62598 10.374 16.3809 8.08203zM308.48 281.367
c-0.116211 -0.232422 -16.4072 -26.7637 -30.3711 -51.083c-13.9648 -24.3203 -26.9961 -48.5244 -29.0918 -52.3643l1.39648 -79.0107h-2.90918c-7.1875 1.73828 -14.6865 1.73828 -21.876 0h-2.79297v2.67578l1.8623 76.6836l-61.7891 106.822h5.00391
c7.11523 -1.70117 14.5303 -1.70117 21.6436 0h1.62891l45.498 -77.9639l45.3828 77.6152h1.97754c7.18848 -1.73828 14.6875 -1.73828 21.876 0h4.53809l-1.97754 -3.375v0zM465.455 448c25.7061 0 46.5449 -20.8389 46.5449 -46.5449v-418.91
c0 -25.7061 -20.8389 -46.5449 -46.5459 -46.5449h-418.909c-25.7061 0 -46.5449 20.8389 -46.5449 46.5459v418.909c0 25.7061 20.8389 46.5449 46.5449 46.5449h418.91zM488.727 -17.4551v418.91c0 12.8525 -10.4199 23.2725 -23.2725 23.2725h-418.909
c-12.8525 0 -23.2725 -10.4199 -23.2725 -23.2725v-418.91c0 -12.8525 10.4199 -23.2725 23.2725 -23.2725h418.909c12.8525 0 23.2725 10.4199 23.2725 23.2725zM338.735 282.415c3.2168 -0.658203 6.00586 -2.64551 7.67969 -5.46875
c2.15918 -4.03418 2.66016 -8.75098 1.39551 -13.1494c-0.582031 -2.79199 -1.86133 -8.49414 -3.72363 -16.4072c-5.81836 -25.4834 -16.6396 -73.1924 -22.3418 -108.102v-2.67578l-2.44434 0.930664c-2.2666 0.861328 -4.67285 1.29492 -7.09766 1.28027h-0.698242
h-2.32715v2.32715c0 0.697266 4.77148 28.8574 12.5674 128.697c0 0.280273 0.00878906 0.561523 0.0273438 0.841797c0.449219 6.86133 6.37695 12.0596 13.2383 11.6094c1.23926 0.120117 2.48633 0.120117 3.72461 0v0.116211z" />
    <glyph glyph-name="uniF1E8" unicode="&#xf1e8;" 
d="M503.145 400.303c4.96289 -1.39258 8.41602 -5.88574 8.4834 -11.0391v-441.539c0 -6.41602 -5.20215 -11.6191 -11.6191 -11.6191c-1.04199 -0.141602 -2.09766 -0.141602 -3.1377 0l-159.534 46.4785l-159.534 -45.8975
c-2.00488 -0.852539 -4.26953 -0.852539 -6.27539 0l-162.671 46.4785c-4.96289 1.39258 -8.41699 5.88574 -8.4834 11.0391v441.538c0 6.41602 5.20215 11.6191 11.6191 11.6191c1.04199 0.141602 2.09766 0.141602 3.1377 0l159.534 -46.4785l159.534 46.4785
c2.00488 0.852539 4.26953 0.852539 6.27539 0l162.671 -46.4775v-0.581055zM163.045 -36.8193h-0.000976562v417.369l-139.433 39.7373v-417.369zM325.717 3.03418v417.253l-139.433 -39.7373v-417.37zM488.389 -36.8193v417.369l-139.433 39.7373v-417.369z" />
    <glyph glyph-name="uniF134" unicode="&#xf134;" 
d="M23.2734 215.273c-12.8535 0 -23.2734 10.4189 -23.2734 23.2725v46.5449c0 12.8535 10.4199 23.2734 23.2734 23.2734h325.817c12.8535 0 23.2734 -10.4199 23.2734 -23.2734v-46.5449c0 -12.8525 -10.4199 -23.2725 -23.2734 -23.2725h-325.817zM23.2734 285.091
v-46.5449h325.817v46.5449h-325.817zM488.727 448c12.8535 0 23.2734 -10.4199 23.2744 -23.2734v-46.5449c0 -12.8525 -10.4199 -23.2725 -23.2734 -23.2725h-465.454c-12.8535 0 -23.2734 10.4199 -23.2734 23.2725v46.5449c0 12.8535 10.4199 23.2734 23.2734 23.2734
h465.453zM488.727 378.182h0.000976562v46.5449h-465.454v-46.5449h465.453zM349.091 29.0908c12.8535 0 23.2734 -10.4199 23.2734 -23.2725v-46.5449c0 -12.8535 -10.4199 -23.2734 -23.2734 -23.2734h-325.817c-12.8535 0 -23.2734 10.4199 -23.2734 23.2734v46.5449
c0 12.8525 10.4199 23.2725 23.2734 23.2725h325.817zM349.091 -40.7266v46.5449h-325.817v-46.5449h325.817zM488.727 168.727c12.8535 0 23.2734 -10.4189 23.2744 -23.2715v-46.5449c0 -12.8535 -10.4199 -23.2734 -23.2734 -23.2734h-465.454
c-12.8535 0 -23.2734 10.4199 -23.2734 23.2734v46.5449c0 12.8525 10.4199 23.2715 23.2734 23.2715h465.453zM488.727 98.9092h0.000976562v46.5449h-465.454v-46.5449h465.453z" />
    </font>
</defs>
</svg>
